STARTFONT 2.1
COMMENT "$Id: 7x14.bdf,v 1.45 2003-01-09 20:21:14+00 mgk25 Exp mgk25 $"
COMMENT "Send bug reports to Markus Kuhn <http://www.cl.cam.ac.uk/~mgk25/>"
COMMENT "Slurped into JMK Neep typeface for ISO10646 support"
FONT -jmk-Neep-Medium-R-Normal--15-140-75-75-C-80-ISO10646-1
SIZE 15 75 75
FONTBOUNDINGBOX 8 15 0 -3
STARTPROPERTIES 22
FONTNAME_REGISTRY ""
FOUNDRY "Misc"
FAMILY_NAME "Fixed"
WEIGHT_NAME "Medium"
SLANT "R"
SETWIDTH_NAME "Normal"
ADD_STYLE_NAME ""
PIXEL_SIZE 15
POINT_SIZE 140
RESOLUTION_X 75
RESOLUTION_Y 75
SPACING "C"
AVERAGE_WIDTH 80
CHARSET_REGISTRY "ISO10646"
CHARSET_ENCODING "1"
DEFAULT_CHAR 0
FONT_DESCENT 3
FONT_ASCENT 12
COPYRIGHT "Public domain font.  Share and enjoy."
_XMBDFED_INFO "Edited with xmbdfed 4.7."
CAP_HEIGHT 10
X_HEIGHT 7
ENDPROPERTIES
CHARS 2380
STARTCHAR Amacron
ENCODING 256
SWIDTH 512 0
DWIDTH 8 0
BBX 8 15 0 -3
BITMAP
00
3C
00
18
24
42
42
42
7E
42
42
42
00
00
00
ENDCHAR
STARTCHAR amacron
ENCODING 257
SWIDTH 512 0
DWIDTH 8 0
BBX 8 15 0 -3
BITMAP
00
00
00
3C
00
3C
42
0E
32
42
46
3A
00
00
00
ENDCHAR
STARTCHAR Abreve
ENCODING 258
SWIDTH 512 0
DWIDTH 8 0
BBX 8 15 0 -3
BITMAP
42
3C
00
18
24
42
42
42
7E
42
42
42
00
00
00
ENDCHAR
STARTCHAR abreve
ENCODING 259
SWIDTH 512 0
DWIDTH 8 0
BBX 8 15 0 -3
BITMAP
00
00
42
3C
00
3C
42
0E
32
42
46
3A
00
00
00
ENDCHAR
STARTCHAR Aogonek
ENCODING 260
SWIDTH 512 0
DWIDTH 8 0
BBX 8 15 0 -3
BITMAP
00
00
18
24
42
42
42
7E
42
42
42
42
04
03
00
ENDCHAR
STARTCHAR aogonek
ENCODING 261
SWIDTH 512 0
DWIDTH 8 0
BBX 8 15 0 -3
BITMAP
00
00
00
00
00
3C
42
0E
32
42
46
3A
04
03
00
ENDCHAR
STARTCHAR Cacute
ENCODING 262
SWIDTH 512 0
DWIDTH 8 0
BBX 8 15 0 -3
BITMAP
08
10
00
3C
42
42
40
40
40
42
42
3C
00
00
00
ENDCHAR
STARTCHAR cacute
ENCODING 263
SWIDTH 512 0
DWIDTH 8 0
BBX 8 15 0 -3
BITMAP
00
00
08
10
00
3C
42
40
40
40
42
3C
00
00
00
ENDCHAR
STARTCHAR Ccircumflex
ENCODING 264
SWIDTH 512 0
DWIDTH 8 0
BBX 8 15 0 -3
BITMAP
18
24
00
3C
42
42
40
40
40
42
42
3C
00
00
00
ENDCHAR
STARTCHAR ccircumflex
ENCODING 265
SWIDTH 512 0
DWIDTH 8 0
BBX 8 15 0 -3
BITMAP
00
00
18
24
00
3C
42
40
40
40
42
3C
00
00
00
ENDCHAR
STARTCHAR Cdotaccent
ENCODING 266
SWIDTH 512 0
DWIDTH 8 0
BBX 8 15 0 -3
BITMAP
00
18
00
3C
42
42
40
40
40
42
42
3C
00
00
00
ENDCHAR
STARTCHAR cdotaccent
ENCODING 267
SWIDTH 512 0
DWIDTH 8 0
BBX 8 15 0 -3
BITMAP
00
00
00
18
00
3C
42
40
40
40
42
3C
00
00
00
ENDCHAR
STARTCHAR Ccaron
ENCODING 268
SWIDTH 512 0
DWIDTH 8 0
BBX 8 15 0 -3
BITMAP
24
18
00
3C
42
42
40
40
40
42
42
3C
00
00
00
ENDCHAR
STARTCHAR ccaron
ENCODING 269
SWIDTH 512 0
DWIDTH 8 0
BBX 8 15 0 -3
BITMAP
00
00
24
18
00
3C
42
40
40
40
42
3C
00
00
00
ENDCHAR
STARTCHAR Dcaron
ENCODING 270
SWIDTH 512 0
DWIDTH 8 0
BBX 8 15 0 -3
BITMAP
24
18
00
78
44
42
42
42
42
42
44
78
00
00
00
ENDCHAR
STARTCHAR dcaron
ENCODING 271
SWIDTH 512 0
DWIDTH 8 0
BBX 8 15 0 -3
BITMAP
00
24
18
02
02
3A
46
42
42
42
46
3A
00
00
00
ENDCHAR
STARTCHAR Dcroat
ENCODING 272
SWIDTH 512 0
DWIDTH 8 0
BBX 8 15 0 -3
BITMAP
00
00
3C
22
21
21
71
21
21
21
22
3C
00
00
00
ENDCHAR
STARTCHAR dcroat
ENCODING 273
SWIDTH 512 0
DWIDTH 8 0
BBX 8 15 0 -3
BITMAP
00
00
02
1F
02
3A
46
42
42
42
46
3A
00
00
00
ENDCHAR
STARTCHAR Emacron
ENCODING 274
SWIDTH 512 0
DWIDTH 8 0
BBX 8 15 0 -3
BITMAP
00
3C
00
7E
40
40
40
78
40
40
40
7E
00
00
00
ENDCHAR
STARTCHAR emacron
ENCODING 275
SWIDTH 512 0
DWIDTH 8 0
BBX 8 15 0 -3
BITMAP
00
00
00
3C
00
3C
42
42
7E
40
42
3C
00
00
00
ENDCHAR
STARTCHAR Ebreve
ENCODING 276
SWIDTH 512 0
DWIDTH 8 0
BBX 8 15 0 -3
BITMAP
42
3C
00
7E
40
40
40
78
40
40
40
7E
00
00
00
ENDCHAR
STARTCHAR ebreve
ENCODING 277
SWIDTH 512 0
DWIDTH 8 0
BBX 8 15 0 -3
BITMAP
00
00
42
3C
00
3C
42
42
7E
40
42
3C
00
00
00
ENDCHAR
STARTCHAR Edotaccent
ENCODING 278
SWIDTH 512 0
DWIDTH 8 0
BBX 8 15 0 -3
BITMAP
00
18
00
7E
40
40
40
78
40
40
40
7E
00
00
00
ENDCHAR
STARTCHAR edotaccent
ENCODING 279
SWIDTH 512 0
DWIDTH 8 0
BBX 8 15 0 -3
BITMAP
00
00
00
18
00
3C
42
42
7E
40
42
3C
00
00
00
ENDCHAR
STARTCHAR Eogonek
ENCODING 280
SWIDTH 512 0
DWIDTH 8 0
BBX 8 15 0 -3
BITMAP
00
00
7E
40
40
40
78
40
40
40
40
7E
10
08
00
ENDCHAR
STARTCHAR eogonek
ENCODING 281
SWIDTH 512 0
DWIDTH 8 0
BBX 8 15 0 -3
BITMAP
00
00
00
00
00
3C
42
42
7E
40
42
3C
10
08
00
ENDCHAR
STARTCHAR Ecaron
ENCODING 282
SWIDTH 512 0
DWIDTH 8 0
BBX 8 15 0 -3
BITMAP
24
18
00
7E
40
40
40
78
40
40
40
7E
00
00
00
ENDCHAR
STARTCHAR ecaron
ENCODING 283
SWIDTH 512 0
DWIDTH 8 0
BBX 8 15 0 -3
BITMAP
00
00
24
18
00
3C
42
42
7E
40
42
3C
00
00
00
ENDCHAR
STARTCHAR Gcircumflex
ENCODING 284
SWIDTH 512 0
DWIDTH 8 0
BBX 8 15 0 -3
BITMAP
18
24
00
3C
42
40
40
4E
42
42
46
3A
00
00
00
ENDCHAR
STARTCHAR gcircumflex
ENCODING 285
SWIDTH 512 0
DWIDTH 8 0
BBX 8 15 0 -3
BITMAP
00
00
18
24
00
3A
44
44
44
38
20
5C
42
3C
00
ENDCHAR
STARTCHAR Gbreve
ENCODING 286
SWIDTH 512 0
DWIDTH 8 0
BBX 8 15 0 -3
BITMAP
22
1C
00
3C
42
40
40
4E
42
42
46
3A
00
00
00
ENDCHAR
STARTCHAR gbreve
ENCODING 287
SWIDTH 512 0
DWIDTH 8 0
BBX 8 15 0 -3
BITMAP
00
00
22
1C
00
3A
44
44
44
38
20
5C
42
3C
00
ENDCHAR
STARTCHAR Gdotaccent
ENCODING 288
SWIDTH 512 0
DWIDTH 8 0
BBX 8 15 0 -3
BITMAP
00
18
00
3C
42
40
40
4E
42
42
46
3A
00
00
00
ENDCHAR
STARTCHAR gdotaccent
ENCODING 289
SWIDTH 512 0
DWIDTH 8 0
BBX 8 15 0 -3
BITMAP
00
00
10
10
00
3A
44
44
44
38
20
5C
42
3C
00
ENDCHAR
STARTCHAR Gcommaaccent
ENCODING 290
SWIDTH 512 0
DWIDTH 8 0
BBX 8 15 0 -3
BITMAP
00
00
00
3C
42
40
40
4E
42
42
46
3A
08
30
00
ENDCHAR
STARTCHAR gcommaaccent
ENCODING 291
SWIDTH 512 0
DWIDTH 8 0
BBX 8 15 0 -3
BITMAP
00
08
10
18
00
3A
44
44
44
38
20
5C
42
3C
00
ENDCHAR
STARTCHAR Hcircumflex
ENCODING 292
SWIDTH 512 0
DWIDTH 8 0
BBX 8 15 0 -3
BITMAP
18
24
00
42
42
42
42
7E
42
42
42
42
00
00
00
ENDCHAR
STARTCHAR hcircumflex
ENCODING 293
SWIDTH 512 0
DWIDTH 8 0
BBX 8 15 0 -3
BITMAP
18
24
00
40
40
40
5C
62
42
42
42
42
00
00
00
ENDCHAR
STARTCHAR Hbar
ENCODING 294
SWIDTH 512 0
DWIDTH 8 0
BBX 8 15 0 -3
BITMAP
00
00
22
22
7F
22
3E
22
22
22
22
22
00
00
00
ENDCHAR
STARTCHAR hbar
ENCODING 295
SWIDTH 512 0
DWIDTH 8 0
BBX 8 15 0 -3
BITMAP
00
00
20
7C
20
2E
31
21
21
21
21
21
00
00
00
ENDCHAR
STARTCHAR Itilde
ENCODING 296
SWIDTH 512 0
DWIDTH 8 0
BBX 8 15 0 -3
BITMAP
32
4C
00
7C
10
10
10
10
10
10
10
7C
00
00
00
ENDCHAR
STARTCHAR itilde
ENCODING 297
SWIDTH 512 0
DWIDTH 8 0
BBX 8 15 0 -3
BITMAP
00
00
1A
2C
00
18
08
08
08
08
08
3E
00
00
00
ENDCHAR
STARTCHAR Imacron
ENCODING 298
SWIDTH 512 0
DWIDTH 8 0
BBX 8 15 0 -3
BITMAP
00
3E
00
3E
08
08
08
08
08
08
08
3E
00
00
00
ENDCHAR
STARTCHAR imacron
ENCODING 299
SWIDTH 512 0
DWIDTH 8 0
BBX 8 15 0 -3
BITMAP
00
00
00
3E
00
18
08
08
08
08
08
3E
00
00
00
ENDCHAR
STARTCHAR Ibreve
ENCODING 300
SWIDTH 512 0
DWIDTH 8 0
BBX 8 15 0 -3
BITMAP
22
1C
00
3E
08
08
08
08
08
08
08
3E
00
00
00
ENDCHAR
STARTCHAR ibreve
ENCODING 301
SWIDTH 512 0
DWIDTH 8 0
BBX 8 15 0 -3
BITMAP
00
00
22
1C
00
18
08
08
08
08
08
3E
00
00
00
ENDCHAR
STARTCHAR Iogonek
ENCODING 302
SWIDTH 512 0
DWIDTH 8 0
BBX 8 15 0 -3
BITMAP
00
00
3E
08
08
08
08
08
08
08
08
3E
10
08
00
ENDCHAR
STARTCHAR iogonek
ENCODING 303
SWIDTH 512 0
DWIDTH 8 0
BBX 8 15 0 -3
BITMAP
00
00
08
08
00
18
08
08
08
08
08
3E
10
08
00
ENDCHAR
STARTCHAR Idotaccent
ENCODING 304
SWIDTH 512 0
DWIDTH 8 0
BBX 8 15 0 -3
BITMAP
08
08
00
3E
08
08
08
08
08
08
08
3E
00
00
00
ENDCHAR
STARTCHAR dotlessi
ENCODING 305
SWIDTH 512 0
DWIDTH 8 0
BBX 8 15 0 -3
BITMAP
00
00
00
00
00
18
08
08
08
08
08
3E
00
00
00
ENDCHAR
STARTCHAR IJ
ENCODING 306
SWIDTH 512 0
DWIDTH 8 0
BBX 8 15 0 -3
BITMAP
00
00
47
42
42
42
42
42
42
52
52
4C
00
00
00
ENDCHAR
STARTCHAR ij
ENCODING 307
SWIDTH 512 0
DWIDTH 8 0
BBX 8 15 0 -3
BITMAP
00
00
42
42
00
46
42
42
42
42
42
52
12
0C
00
ENDCHAR
STARTCHAR Jcircumflex
ENCODING 308
SWIDTH 512 0
DWIDTH 8 0
BBX 8 15 0 -3
BITMAP
0C
12
00
0E
04
04
04
04
04
44
44
38
00
00
00
ENDCHAR
STARTCHAR jcircumflex
ENCODING 309
SWIDTH 512 0
DWIDTH 8 0
BBX 8 15 0 -3
BITMAP
00
0C
12
00
0C
04
04
04
04
04
04
44
44
38
00
ENDCHAR
STARTCHAR Kcommaaccent
ENCODING 310
SWIDTH 512 0
DWIDTH 8 0
BBX 8 15 0 -3
BITMAP
00
00
42
44
48
50
60
50
48
44
42
42
20
40
00
ENDCHAR
STARTCHAR kcommaaccent
ENCODING 311
SWIDTH 512 0
DWIDTH 8 0
BBX 8 15 0 -3
BITMAP
00
00
00
40
40
44
48
50
70
48
44
42
20
40
00
ENDCHAR
STARTCHAR kgreenlandic
ENCODING 312
SWIDTH 512 0
DWIDTH 8 0
BBX 8 15 0 -3
BITMAP
00
00
00
00
00
42
44
48
70
48
44
42
00
00
00
ENDCHAR
STARTCHAR Lacute
ENCODING 313
SWIDTH 512 0
DWIDTH 8 0
BBX 8 15 0 -3
BITMAP
20
40
00
40
40
40
40
40
40
40
40
7E
00
00
00
ENDCHAR
STARTCHAR lacute
ENCODING 314
SWIDTH 512 0
DWIDTH 8 0
BBX 8 15 0 -3
BITMAP
08
10
00
18
08
08
08
08
08
08
08
3E
00
00
00
ENDCHAR
STARTCHAR Lcommaaccent
ENCODING 315
SWIDTH 512 0
DWIDTH 8 0
BBX 8 15 0 -3
BITMAP
00
00
40
40
40
40
40
40
40
40
40
7E
08
10
00
ENDCHAR
STARTCHAR lcommaaccent
ENCODING 316
SWIDTH 512 0
DWIDTH 8 0
BBX 8 15 0 -3
BITMAP
00
00
18
08
08
08
08
08
08
08
08
3E
08
10
00
ENDCHAR
STARTCHAR Lcaron
ENCODING 317
SWIDTH 512 0
DWIDTH 8 0
BBX 8 15 0 -3
BITMAP
00
50
20
00
40
40
40
40
40
40
40
7E
00
00
00
ENDCHAR
STARTCHAR lcaron
ENCODING 318
SWIDTH 512 0
DWIDTH 8 0
BBX 8 15 0 -3
BITMAP
24
18
00
18
08
08
08
08
08
08
08
3E
00
00
00
ENDCHAR
STARTCHAR Ldot
ENCODING 319
SWIDTH 512 0
DWIDTH 8 0
BBX 8 15 0 -3
BITMAP
00
00
40
40
40
40
48
48
40
40
40
7E
00
00
00
ENDCHAR
STARTCHAR ldot
ENCODING 320
SWIDTH 512 0
DWIDTH 8 0
BBX 8 15 0 -3
BITMAP
00
00
18
08
08
08
08
0A
08
08
08
3E
00
00
00
ENDCHAR
STARTCHAR Lslash
ENCODING 321
SWIDTH 512 0
DWIDTH 8 0
BBX 8 15 0 -3
BITMAP
00
00
10
10
10
14
18
30
50
10
10
1F
00
00
00
ENDCHAR
STARTCHAR lslash
ENCODING 322
SWIDTH 512 0
DWIDTH 8 0
BBX 8 15 0 -3
BITMAP
00
00
18
08
08
0A
0C
18
28
08
08
3E
00
00
00
ENDCHAR
STARTCHAR Nacute
ENCODING 323
SWIDTH 512 0
DWIDTH 8 0
BBX 8 15 0 -3
BITMAP
08
10
00
42
62
62
52
4A
46
46
42
42
00
00
00
ENDCHAR
STARTCHAR nacute
ENCODING 324
SWIDTH 512 0
DWIDTH 8 0
BBX 8 15 0 -3
BITMAP
00
00
08
10
00
5C
62
42
42
42
42
42
00
00
00
ENDCHAR
STARTCHAR Ncommaaccent
ENCODING 325
SWIDTH 512 0
DWIDTH 8 0
BBX 8 15 0 -3
BITMAP
00
00
42
42
62
62
52
4A
46
46
42
42
20
40
00
ENDCHAR
STARTCHAR ncommaaccent
ENCODING 326
SWIDTH 512 0
DWIDTH 8 0
BBX 8 15 0 -3
BITMAP
00
00
00
00
00
5C
62
42
42
42
42
42
20
40
00
ENDCHAR
STARTCHAR Ncaron
ENCODING 327
SWIDTH 512 0
DWIDTH 8 0
BBX 8 15 0 -3
BITMAP
24
18
42
42
62
62
52
4A
46
46
42
42
00
00
00
ENDCHAR
STARTCHAR ncaron
ENCODING 328
SWIDTH 512 0
DWIDTH 8 0
BBX 8 15 0 -3
BITMAP
00
00
24
18
00
5C
62
42
42
42
42
42
00
00
00
ENDCHAR
STARTCHAR napostrophe
ENCODING 329
SWIDTH 512 0
DWIDTH 8 0
BBX 8 15 0 -3
BITMAP
00
60
20
40
00
5C
62
42
42
42
42
42
00
00
00
ENDCHAR
STARTCHAR Eng
ENCODING 330
SWIDTH 512 0
DWIDTH 8 0
BBX 8 15 0 -3
BITMAP
00
00
42
42
62
62
52
4A
46
46
42
42
02
0C
00
ENDCHAR
STARTCHAR eng
ENCODING 331
SWIDTH 512 0
DWIDTH 8 0
BBX 8 15 0 -3
BITMAP
00
00
00
00
00
5C
62
42
42
42
42
42
02
0C
00
ENDCHAR
STARTCHAR Omacron
ENCODING 332
SWIDTH 512 0
DWIDTH 8 0
BBX 8 15 0 -3
BITMAP
00
3C
00
3C
42
42
42
42
42
42
42
3C
00
00
00
ENDCHAR
STARTCHAR omacron
ENCODING 333
SWIDTH 512 0
DWIDTH 8 0
BBX 8 15 0 -3
BITMAP
00
00
00
3C
00
3C
42
42
42
42
42
3C
00
00
00
ENDCHAR
STARTCHAR Obreve
ENCODING 334
SWIDTH 512 0
DWIDTH 8 0
BBX 8 15 0 -3
BITMAP
42
3C
00
3C
42
42
42
42
42
42
42
3C
00
00
00
ENDCHAR
STARTCHAR obreve
ENCODING 335
SWIDTH 512 0
DWIDTH 8 0
BBX 8 15 0 -3
BITMAP
00
00
42
3C
00
3C
42
42
42
42
42
3C
00
00
00
ENDCHAR
STARTCHAR Ohungarumlaut
ENCODING 336
SWIDTH 512 0
DWIDTH 8 0
BBX 8 15 0 -3
BITMAP
12
24
00
3C
42
42
42
42
42
42
42
3C
00
00
00
ENDCHAR
STARTCHAR ohungarumlaut
ENCODING 337
SWIDTH 512 0
DWIDTH 8 0
BBX 8 15 0 -3
BITMAP
00
00
12
24
00
3C
42
42
42
42
42
3C
00
00
00
ENDCHAR
STARTCHAR OE
ENCODING 338
SWIDTH 512 0
DWIDTH 8 0
BBX 8 15 0 -3
BITMAP
00
00
3E
48
48
48
4E
48
48
48
48
3E
00
00
00
ENDCHAR
STARTCHAR oe
ENCODING 339
SWIDTH 512 0
DWIDTH 8 0
BBX 8 15 0 -3
BITMAP
00
00
00
00
00
3C
4A
4A
4E
48
48
3E
00
00
00
ENDCHAR
STARTCHAR Racute
ENCODING 340
SWIDTH 512 0
DWIDTH 8 0
BBX 8 15 0 -3
BITMAP
08
10
00
7C
42
42
42
7C
48
44
42
42
00
00
00
ENDCHAR
STARTCHAR racute
ENCODING 341
SWIDTH 512 0
DWIDTH 8 0
BBX 8 15 0 -3
BITMAP
00
00
08
10
00
5C
62
42
40
40
40
40
00
00
00
ENDCHAR
STARTCHAR Rcommaaccent
ENCODING 342
SWIDTH 512 0
DWIDTH 8 0
BBX 8 15 0 -3
BITMAP
00
00
7C
42
42
42
42
7C
48
44
42
42
20
40
00
ENDCHAR
STARTCHAR rcommaaccent
ENCODING 343
SWIDTH 512 0
DWIDTH 8 0
BBX 8 15 0 -3
BITMAP
00
00
00
00
00
5C
62
42
40
40
40
40
20
40
00
ENDCHAR
STARTCHAR Rcaron
ENCODING 344
SWIDTH 512 0
DWIDTH 8 0
BBX 8 15 0 -3
BITMAP
24
18
00
7C
42
42
42
7C
48
44
42
42
00
00
00
ENDCHAR
STARTCHAR rcaron
ENCODING 345
SWIDTH 512 0
DWIDTH 8 0
BBX 8 15 0 -3
BITMAP
00
00
24
18
00
5C
62
42
40
40
40
40
00
00
00
ENDCHAR
STARTCHAR Sacute
ENCODING 346
SWIDTH 512 0
DWIDTH 8 0
BBX 8 15 0 -3
BITMAP
08
10
00
3C
42
40
40
3C
02
42
42
3C
00
00
00
ENDCHAR
STARTCHAR sacute
ENCODING 347
SWIDTH 512 0
DWIDTH 8 0
BBX 8 15 0 -3
BITMAP
00
00
08
10
00
3C
42
20
18
04
42
3C
00
00
00
ENDCHAR
STARTCHAR Scircumflex
ENCODING 348
SWIDTH 512 0
DWIDTH 8 0
BBX 8 15 0 -3
BITMAP
18
24
00
3C
42
40
40
3C
02
42
42
3C
00
00
00
ENDCHAR
STARTCHAR scircumflex
ENCODING 349
SWIDTH 512 0
DWIDTH 8 0
BBX 8 15 0 -3
BITMAP
00
00
18
24
00
3C
42
20
18
04
42
3C
00
00
00
ENDCHAR
STARTCHAR Scedilla
ENCODING 350
SWIDTH 512 0
DWIDTH 8 0
BBX 8 15 0 -3
BITMAP
00
00
3C
42
42
40
30
0C
02
42
42
3C
08
10
00
ENDCHAR
STARTCHAR scedilla
ENCODING 351
SWIDTH 512 0
DWIDTH 8 0
BBX 8 15 0 -3
BITMAP
00
00
00
00
00
3C
42
20
18
04
42
3C
08
10
00
ENDCHAR
STARTCHAR Scaron
ENCODING 352
SWIDTH 512 0
DWIDTH 8 0
BBX 8 15 0 -3
BITMAP
24
18
00
3C
42
42
30
0C
02
42
42
3C
00
00
00
ENDCHAR
STARTCHAR scaron
ENCODING 353
SWIDTH 512 0
DWIDTH 8 0
BBX 8 15 0 -3
BITMAP
00
00
24
18
00
3C
42
20
18
04
42
3C
00
00
00
ENDCHAR
STARTCHAR Tcommaaccent
ENCODING 354
SWIDTH 512 0
DWIDTH 8 0
BBX 8 15 0 -3
BITMAP
00
00
7F
08
08
08
08
08
08
08
08
08
04
08
00
ENDCHAR
STARTCHAR tcommaaccent
ENCODING 355
SWIDTH 512 0
DWIDTH 8 0
BBX 8 15 0 -3
BITMAP
00
00
10
10
10
7C
10
10
10
10
12
0C
04
08
00
ENDCHAR
STARTCHAR Tcaron
ENCODING 356
SWIDTH 512 0
DWIDTH 8 0
BBX 8 15 0 -3
BITMAP
12
0C
00
7F
08
08
08
08
08
08
08
08
00
00
00
ENDCHAR
STARTCHAR tcaron
ENCODING 357
SWIDTH 512 0
DWIDTH 8 0
BBX 8 15 0 -3
BITMAP
24
18
00
10
10
7C
10
10
10
10
12
0C
00
00
00
ENDCHAR
STARTCHAR Tbar
ENCODING 358
SWIDTH 512 0
DWIDTH 8 0
BBX 8 15 0 -3
BITMAP
00
00
7F
08
08
08
08
1C
08
08
08
08
00
00
00
ENDCHAR
STARTCHAR tbar
ENCODING 359
SWIDTH 512 0
DWIDTH 8 0
BBX 8 15 0 -3
BITMAP
00
00
10
10
7C
10
10
38
10
10
12
0C
00
00
00
ENDCHAR
STARTCHAR Utilde
ENCODING 360
SWIDTH 512 0
DWIDTH 8 0
BBX 8 15 0 -3
BITMAP
32
4C
00
42
42
42
42
42
42
42
42
3C
00
00
00
ENDCHAR
STARTCHAR utilde
ENCODING 361
SWIDTH 512 0
DWIDTH 8 0
BBX 8 15 0 -3
BITMAP
00
00
32
4C
00
42
42
42
42
42
46
3A
00
00
00
ENDCHAR
STARTCHAR Umacron
ENCODING 362
SWIDTH 512 0
DWIDTH 8 0
BBX 8 15 0 -3
BITMAP
00
3C
00
42
42
42
42
42
42
42
42
3C
00
00
00
ENDCHAR
STARTCHAR umacron
ENCODING 363
SWIDTH 512 0
DWIDTH 8 0
BBX 8 15 0 -3
BITMAP
00
00
00
3C
00
42
42
42
42
42
46
3A
00
00
00
ENDCHAR
STARTCHAR Ubreve
ENCODING 364
SWIDTH 512 0
DWIDTH 8 0
BBX 8 15 0 -3
BITMAP
42
3C
00
42
42
42
42
42
42
42
42
3C
00
00
00
ENDCHAR
STARTCHAR ubreve
ENCODING 365
SWIDTH 512 0
DWIDTH 8 0
BBX 8 15 0 -3
BITMAP
00
00
42
3C
00
42
42
42
42
42
46
3A
00
00
00
ENDCHAR
STARTCHAR Uring
ENCODING 366
SWIDTH 512 0
DWIDTH 8 0
BBX 8 15 0 -3
BITMAP
18
24
18
42
42
42
42
42
42
42
42
3C
00
00
00
ENDCHAR
STARTCHAR uring
ENCODING 367
SWIDTH 512 0
DWIDTH 8 0
BBX 8 15 0 -3
BITMAP
00
18
24
18
00
42
42
42
42
42
46
3A
00
00
00
ENDCHAR
STARTCHAR Uhungarumlaut
ENCODING 368
SWIDTH 512 0
DWIDTH 8 0
BBX 8 15 0 -3
BITMAP
12
24
00
42
42
42
42
42
42
42
42
3C
00
00
00
ENDCHAR
STARTCHAR uhungarumlaut
ENCODING 369
SWIDTH 512 0
DWIDTH 8 0
BBX 8 15 0 -3
BITMAP
00
00
12
24
00
42
42
42
42
42
46
3A
00
00
00
ENDCHAR
STARTCHAR Uogonek
ENCODING 370
SWIDTH 512 0
DWIDTH 8 0
BBX 8 15 0 -3
BITMAP
00
00
42
42
42
42
42
42
42
42
42
3C
10
08
00
ENDCHAR
STARTCHAR uogonek
ENCODING 371
SWIDTH 512 0
DWIDTH 8 0
BBX 8 15 0 -3
BITMAP
00
00
00
00
00
42
42
42
42
42
46
3A
10
08
00
ENDCHAR
STARTCHAR Wcircumflex
ENCODING 372
SWIDTH 512 0
DWIDTH 8 0
BBX 8 15 0 -3
BITMAP
18
24
00
42
42
42
42
5A
5A
66
66
42
00
00
00
ENDCHAR
STARTCHAR wcircumflex
ENCODING 373
SWIDTH 512 0
DWIDTH 8 0
BBX 8 15 0 -3
BITMAP
00
00
08
14
00
22
22
2A
2A
2A
2A
14
00
00
00
ENDCHAR
STARTCHAR Ycircumflex
ENCODING 374
SWIDTH 512 0
DWIDTH 8 0
BBX 8 15 0 -3
BITMAP
08
14
00
22
22
14
14
08
08
08
08
08
00
00
00
ENDCHAR
STARTCHAR ycircumflex
ENCODING 375
SWIDTH 512 0
DWIDTH 8 0
BBX 8 15 0 -3
BITMAP
00
00
18
24
00
42
42
42
42
46
3A
02
42
3C
00
ENDCHAR
STARTCHAR Ydieresis
ENCODING 376
SWIDTH 512 0
DWIDTH 8 0
BBX 8 15 0 -3
BITMAP
14
14
00
22
22
14
14
08
08
08
08
08
00
00
00
ENDCHAR
STARTCHAR Zacute
ENCODING 377
SWIDTH 512 0
DWIDTH 8 0
BBX 8 15 0 -3
BITMAP
08
10
00
7E
04
08
08
10
20
20
40
7E
00
00
00
ENDCHAR
STARTCHAR zacute
ENCODING 378
SWIDTH 512 0
DWIDTH 8 0
BBX 8 15 0 -3
BITMAP
00
00
08
10
00
7E
04
08
10
10
20
7E
00
00
00
ENDCHAR
STARTCHAR Zdotaccent
ENCODING 379
SWIDTH 512 0
DWIDTH 8 0
BBX 8 15 0 -3
BITMAP
00
18
00
7E
04
08
08
10
20
20
40
7E
00
00
00
ENDCHAR
STARTCHAR zdotaccent
ENCODING 380
SWIDTH 512 0
DWIDTH 8 0
BBX 8 15 0 -3
BITMAP
00
00
00
18
00
7E
04
08
10
10
20
7E
00
00
00
ENDCHAR
STARTCHAR Zcaron
ENCODING 381
SWIDTH 512 0
DWIDTH 8 0
BBX 8 15 0 -3
BITMAP
24
18
00
7E
04
08
08
10
20
20
40
7E
00
00
00
ENDCHAR
STARTCHAR zcaron
ENCODING 382
SWIDTH 512 0
DWIDTH 8 0
BBX 8 15 0 -3
BITMAP
00
00
24
18
00
7E
04
08
10
10
20
7E
00
00
00
ENDCHAR
STARTCHAR longs
ENCODING 383
SWIDTH 512 0
DWIDTH 8 0
BBX 8 15 0 -3
BITMAP
00
00
0C
12
10
10
70
10
10
10
10
10
00
00
00
ENDCHAR
STARTCHAR uni0180
ENCODING 384
SWIDTH 512 0
DWIDTH 8 0
BBX 8 15 0 -3
BITMAP
00
00
20
78
20
2E
31
21
21
21
31
2E
00
00
00
ENDCHAR
STARTCHAR uni0181
ENCODING 385
SWIDTH 512 0
DWIDTH 8 0
BBX 8 15 0 -3
BITMAP
00
00
3C
52
52
12
1C
12
12
12
12
1C
00
00
00
ENDCHAR
STARTCHAR uni0182
ENCODING 386
SWIDTH 512 0
DWIDTH 8 0
BBX 8 15 0 -3
BITMAP
00
00
7C
20
20
20
3C
22
22
22
22
7C
00
00
00
ENDCHAR
STARTCHAR uni0183
ENCODING 387
SWIDTH 512 0
DWIDTH 8 0
BBX 8 15 0 -3
BITMAP
00
00
7C
44
40
5C
62
42
42
42
62
5C
00
00
00
ENDCHAR
STARTCHAR uni0184
ENCODING 388
SWIDTH 512 0
DWIDTH 8 0
BBX 8 15 0 -3
BITMAP
00
00
10
30
70
36
19
11
11
11
19
16
00
00
00
ENDCHAR
STARTCHAR uni0185
ENCODING 389
SWIDTH 512 0
DWIDTH 8 0
BBX 8 15 0 -3
BITMAP
00
00
10
30
30
14
1A
12
12
12
1A
14
00
00
00
ENDCHAR
STARTCHAR uni0186
ENCODING 390
SWIDTH 512 0
DWIDTH 8 0
BBX 8 15 0 -3
BITMAP
00
00
3C
42
42
02
02
02
02
42
42
3C
00
00
00
ENDCHAR
STARTCHAR uni0187
ENCODING 391
SWIDTH 512 0
DWIDTH 8 0
BBX 8 15 0 -3
BITMAP
02
04
3C
44
44
40
40
40
40
44
44
38
00
00
00
ENDCHAR
STARTCHAR uni0188
ENCODING 392
SWIDTH 512 0
DWIDTH 8 0
BBX 8 15 0 -3
BITMAP
00
00
00
02
04
3C
44
40
40
40
44
38
00
00
00
ENDCHAR
STARTCHAR uni0189
ENCODING 393
SWIDTH 512 0
DWIDTH 8 0
BBX 8 15 0 -3
BITMAP
00
00
3C
22
21
21
71
21
21
21
22
3C
00
00
00
ENDCHAR
STARTCHAR uni018A
ENCODING 394
SWIDTH 512 0
DWIDTH 8 0
BBX 8 15 0 -3
BITMAP
00
00
3C
52
51
11
11
11
11
11
12
3C
00
00
00
ENDCHAR
STARTCHAR uni018B
ENCODING 395
SWIDTH 512 0
DWIDTH 8 0
BBX 8 15 0 -3
BITMAP
00
00
7E
44
04
04
3C
44
44
44
44
3E
00
00
00
ENDCHAR
STARTCHAR uni018C
ENCODING 396
SWIDTH 512 0
DWIDTH 8 0
BBX 8 15 0 -3
BITMAP
00
00
3C
02
02
3A
46
42
42
42
46
3A
00
00
00
ENDCHAR
STARTCHAR uni018D
ENCODING 397
SWIDTH 512 0
DWIDTH 8 0
BBX 8 15 0 -3
BITMAP
00
00
00
00
00
3C
42
42
42
42
42
3C
04
38
00
ENDCHAR
STARTCHAR uni018E
ENCODING 398
SWIDTH 512 0
DWIDTH 8 0
BBX 8 15 0 -3
BITMAP
00
00
7E
40
40
40
78
40
40
40
40
7E
00
00
00
ENDCHAR
STARTCHAR uni018F
ENCODING 399
SWIDTH 512 0
DWIDTH 8 0
BBX 8 15 0 -3
BITMAP
00
00
3C
42
02
02
7E
42
42
42
42
3C
00
00
00
ENDCHAR
STARTCHAR uni0190
ENCODING 400
SWIDTH 512 0
DWIDTH 8 0
BBX 8 15 0 -3
BITMAP
00
00
1C
22
40
40
38
40
40
40
22
1C
00
00
00
ENDCHAR
STARTCHAR uni0191
ENCODING 401
SWIDTH 512 0
DWIDTH 8 0
BBX 8 15 0 -3
BITMAP
00
00
1F
10
10
10
1E
10
10
10
50
50
20
00
00
ENDCHAR
STARTCHAR florin
ENCODING 402
SWIDTH 512 0
DWIDTH 8 0
BBX 8 15 0 -3
BITMAP
00
00
06
09
08
08
3E
08
08
08
08
48
30
00
00
ENDCHAR
STARTCHAR uni0193
ENCODING 403
SWIDTH 512 0
DWIDTH 8 0
BBX 8 15 0 -3
BITMAP
00
02
3A
44
44
40
40
5C
44
44
4C
34
00
00
00
ENDCHAR
STARTCHAR uni0194
ENCODING 404
SWIDTH 512 0
DWIDTH 8 0
BBX 8 15 0 -3
BITMAP
00
00
00
00
00
22
22
22
14
14
08
08
14
08
00
ENDCHAR
STARTCHAR uni0195
ENCODING 405
SWIDTH 512 0
DWIDTH 8 0
BBX 8 15 0 -3
BITMAP
00
00
40
40
40
62
52
4A
4A
4A
4A
44
00
00
00
ENDCHAR
STARTCHAR uni0196
ENCODING 406
SWIDTH 512 0
DWIDTH 8 0
BBX 8 15 0 -3
BITMAP
00
00
38
08
08
08
08
08
08
08
08
06
00
00
00
ENDCHAR
STARTCHAR uni0197
ENCODING 407
SWIDTH 512 0
DWIDTH 8 0
BBX 8 15 0 -3
BITMAP
00
00
3E
08
08
08
1C
08
08
08
08
3E
00
00
00
ENDCHAR
STARTCHAR uni0198
ENCODING 408
SWIDTH 512 0
DWIDTH 8 0
BBX 8 15 0 -3
BITMAP
00
00
44
4A
52
60
60
50
48
44
42
42
00
00
00
ENDCHAR
STARTCHAR uni0199
ENCODING 409
SWIDTH 512 0
DWIDTH 8 0
BBX 8 15 0 -3
BITMAP
00
30
48
40
40
44
48
50
70
48
44
42
00
00
00
ENDCHAR
STARTCHAR uni019A
ENCODING 410
SWIDTH 512 0
DWIDTH 8 0
BBX 8 15 0 -3
BITMAP
00
00
18
08
08
08
08
08
08
08
08
3E
00
00
00
ENDCHAR
STARTCHAR uni019B
ENCODING 411
SWIDTH 512 0
DWIDTH 8 0
BBX 8 15 0 -3
BITMAP
00
00
10
08
0E
38
08
08
14
14
22
22
00
00
00
ENDCHAR
STARTCHAR uni019C
ENCODING 412
SWIDTH 512 0
DWIDTH 8 0
BBX 8 15 0 -3
BITMAP
00
00
00
00
00
22
2A
2A
2A
2A
2A
16
00
00
00
ENDCHAR
STARTCHAR uni019D
ENCODING 413
SWIDTH 512 0
DWIDTH 8 0
BBX 8 15 0 -3
BITMAP
00
00
11
11
19
19
15
15
13
13
11
51
50
20
00
ENDCHAR
STARTCHAR uni019E
ENCODING 414
SWIDTH 512 0
DWIDTH 8 0
BBX 8 15 0 -3
BITMAP
00
00
00
00
00
5C
62
42
42
42
42
42
02
02
00
ENDCHAR
STARTCHAR uni019F
ENCODING 415
SWIDTH 512 0
DWIDTH 8 0
BBX 8 15 0 -3
BITMAP
00
00
3C
42
42
42
7E
42
42
42
42
3C
00
00
00
ENDCHAR
STARTCHAR Ohorn
ENCODING 416
SWIDTH 512 0
DWIDTH 8 0
BBX 8 15 0 -3
BITMAP
00
02
3A
44
44
44
44
44
44
44
44
38
00
00
00
ENDCHAR
STARTCHAR ohorn
ENCODING 417
SWIDTH 512 0
DWIDTH 8 0
BBX 8 15 0 -3
BITMAP
00
00
00
00
02
3A
44
44
44
44
44
38
00
00
00
ENDCHAR
STARTCHAR uni01A2
ENCODING 418
SWIDTH 512 0
DWIDTH 8 0
BBX 8 15 0 -3
BITMAP
00
00
30
4C
4A
4A
4A
4A
48
48
48
30
00
00
00
ENDCHAR
STARTCHAR uni01A3
ENCODING 419
SWIDTH 512 0
DWIDTH 8 0
BBX 8 15 0 -3
BITMAP
00
00
00
00
00
3C
4A
4A
4A
4A
48
30
00
00
00
ENDCHAR
STARTCHAR uni01A4
ENCODING 420
SWIDTH 512 0
DWIDTH 8 0
BBX 8 15 0 -3
BITMAP
00
00
3C
52
52
12
12
1C
10
10
10
10
00
00
00
ENDCHAR
STARTCHAR uni01A5
ENCODING 421
SWIDTH 512 0
DWIDTH 8 0
BBX 8 15 0 -3
BITMAP
00
00
30
48
40
5C
62
42
42
42
62
5C
40
40
00
ENDCHAR
STARTCHAR uni01A6
ENCODING 422
SWIDTH 512 0
DWIDTH 8 0
BBX 8 15 0 -3
BITMAP
70
20
3E
21
21
21
21
3E
24
24
25
25
02
00
00
ENDCHAR
STARTCHAR uni01A7
ENCODING 423
SWIDTH 512 0
DWIDTH 8 0
BBX 8 15 0 -3
BITMAP
00
00
3C
42
42
02
0C
30
40
42
42
3C
00
00
00
ENDCHAR
STARTCHAR uni01A8
ENCODING 424
SWIDTH 512 0
DWIDTH 8 0
BBX 8 15 0 -3
BITMAP
00
00
00
00
00
3C
42
04
18
20
42
3C
00
00
00
ENDCHAR
STARTCHAR uni01A9
ENCODING 425
SWIDTH 512 0
DWIDTH 8 0
BBX 8 15 0 -3
BITMAP
00
00
7E
40
20
10
08
10
20
40
40
7E
00
00
00
ENDCHAR
STARTCHAR uni01AA
ENCODING 426
SWIDTH 512 0
DWIDTH 8 0
BBX 8 15 0 -3
BITMAP
00
10
28
28
1C
08
08
08
08
08
08
0A
0A
04
00
ENDCHAR
STARTCHAR uni01AB
ENCODING 427
SWIDTH 512 0
DWIDTH 8 0
BBX 8 15 0 -3
BITMAP
00
00
10
10
10
7C
10
10
10
10
12
0E
02
0C
00
ENDCHAR
STARTCHAR uni01AC
ENCODING 428
SWIDTH 512 0
DWIDTH 8 0
BBX 8 15 0 -3
BITMAP
00
00
3F
48
48
28
08
08
08
08
08
08
00
00
00
ENDCHAR
STARTCHAR uni01AD
ENCODING 429
SWIDTH 512 0
DWIDTH 8 0
BBX 8 15 0 -3
BITMAP
00
0C
12
10
10
7C
10
10
10
10
12
0C
00
00
00
ENDCHAR
STARTCHAR uni01AE
ENCODING 430
SWIDTH 512 0
DWIDTH 8 0
BBX 8 15 0 -3
BITMAP
00
00
7F
08
08
08
08
08
08
08
09
09
06
00
00
ENDCHAR
STARTCHAR Uhorn
ENCODING 431
SWIDTH 512 0
DWIDTH 8 0
BBX 8 15 0 -3
BITMAP
00
02
4A
4C
48
48
48
48
48
48
48
30
00
00
00
ENDCHAR
STARTCHAR uhorn
ENCODING 432
SWIDTH 512 0
DWIDTH 8 0
BBX 8 15 0 -3
BITMAP
00
00
00
02
02
46
44
44
44
44
4C
34
00
00
00
ENDCHAR
STARTCHAR uni01B1
ENCODING 433
SWIDTH 512 0
DWIDTH 8 0
BBX 8 15 0 -3
BITMAP
00
00
24
24
42
42
42
42
42
42
42
3C
00
00
00
ENDCHAR
STARTCHAR uni01B2
ENCODING 434
SWIDTH 512 0
DWIDTH 8 0
BBX 8 15 0 -3
BITMAP
00
00
48
44
44
42
42
42
42
42
44
38
00
00
00
ENDCHAR
STARTCHAR uni01B3
ENCODING 435
SWIDTH 512 0
DWIDTH 8 0
BBX 8 15 0 -3
BITMAP
00
00
21
51
51
0A
0A
04
04
04
04
04
00
00
00
ENDCHAR
STARTCHAR uni01B4
ENCODING 436
SWIDTH 512 0
DWIDTH 8 0
BBX 8 15 0 -3
BITMAP
00
00
00
02
05
45
44
44
44
4C
34
04
44
38
00
ENDCHAR
STARTCHAR uni01B5
ENCODING 437
SWIDTH 512 0
DWIDTH 8 0
BBX 8 15 0 -3
BITMAP
00
00
7E
02
04
08
3C
10
20
20
40
7E
00
00
00
ENDCHAR
STARTCHAR uni01B6
ENCODING 438
SWIDTH 512 0
DWIDTH 8 0
BBX 8 15 0 -3
BITMAP
00
00
00
00
00
7E
04
08
3C
10
20
7E
00
00
00
ENDCHAR
STARTCHAR uni01B7
ENCODING 439
SWIDTH 512 0
DWIDTH 8 0
BBX 8 15 0 -3
BITMAP
00
00
7E
02
04
08
1C
02
42
42
44
38
00
00
00
ENDCHAR
STARTCHAR uni01B8
ENCODING 440
SWIDTH 512 0
DWIDTH 8 0
BBX 8 15 0 -3
BITMAP
00
00
7E
40
20
10
38
40
42
42
22
1C
00
00
00
ENDCHAR
STARTCHAR uni01B9
ENCODING 441
SWIDTH 512 0
DWIDTH 8 0
BBX 8 15 0 -3
BITMAP
00
00
00
00
00
7E
20
10
08
3C
40
42
42
3C
00
ENDCHAR
STARTCHAR uni01BA
ENCODING 442
SWIDTH 512 0
DWIDTH 8 0
BBX 8 15 0 -3
BITMAP
00
00
00
00
00
7E
04
08
10
3C
02
3C
40
3C
00
ENDCHAR
STARTCHAR uni01BB
ENCODING 443
SWIDTH 512 0
DWIDTH 8 0
BBX 8 15 0 -3
BITMAP
00
00
3C
42
42
02
04
3E
08
10
20
7E
00
00
00
ENDCHAR
STARTCHAR uni01BC
ENCODING 444
SWIDTH 512 0
DWIDTH 8 0
BBX 8 15 0 -3
BITMAP
00
00
7E
42
40
3C
02
02
22
42
42
3C
00
00
00
ENDCHAR
STARTCHAR uni01BD
ENCODING 445
SWIDTH 512 0
DWIDTH 8 0
BBX 8 15 0 -3
BITMAP
00
00
3C
24
20
38
04
04
24
24
24
18
00
00
00
ENDCHAR
STARTCHAR uni01BE
ENCODING 446
SWIDTH 512 0
DWIDTH 8 0
BBX 8 15 0 -3
BITMAP
00
00
08
08
08
08
3E
08
04
22
22
1C
00
00
00
ENDCHAR
STARTCHAR uni01BF
ENCODING 447
SWIDTH 512 0
DWIDTH 8 0
BBX 8 15 0 -3
BITMAP
00
00
00
00
00
5C
62
42
44
48
50
60
40
40
00
ENDCHAR
STARTCHAR uni01C0
ENCODING 448
SWIDTH 512 0
DWIDTH 8 0
BBX 8 15 0 -3
BITMAP
00
00
08
08
08
08
08
08
08
08
08
08
00
00
00
ENDCHAR
STARTCHAR uni01C1
ENCODING 449
SWIDTH 512 0
DWIDTH 8 0
BBX 8 15 0 -3
BITMAP
00
00
14
14
14
14
14
14
14
14
14
14
00
00
00
ENDCHAR
STARTCHAR uni01C2
ENCODING 450
SWIDTH 512 0
DWIDTH 8 0
BBX 8 15 0 -3
BITMAP
00
00
08
08
08
3E
08
3E
08
08
08
08
00
00
00
ENDCHAR
STARTCHAR uni01C3
ENCODING 451
SWIDTH 512 0
DWIDTH 8 0
BBX 8 15 0 -3
BITMAP
00
00
1C
1C
1C
08
08
08
00
08
1C
08
00
00
00
ENDCHAR
STARTCHAR uni01C4
ENCODING 452
SWIDTH 512 0
DWIDTH 8 0
BBX 8 15 0 -3
BITMAP
05
02
00
67
51
51
52
52
52
54
54
67
00
00
00
ENDCHAR
STARTCHAR uni01C5
ENCODING 453
SWIDTH 512 0
DWIDTH 8 0
BBX 8 15 0 -3
BITMAP
00
00
65
52
50
57
51
52
52
54
54
67
00
00
00
ENDCHAR
STARTCHAR uni01C6
ENCODING 454
SWIDTH 512 0
DWIDTH 8 0
BBX 8 15 0 -3
BITMAP
00
00
15
12
10
37
51
52
52
52
54
37
00
00
00
ENDCHAR
STARTCHAR uni01C7
ENCODING 455
SWIDTH 512 0
DWIDTH 8 0
BBX 8 15 0 -3
BITMAP
00
00
41
41
41
41
41
41
41
41
45
72
00
00
00
ENDCHAR
STARTCHAR uni01C8
ENCODING 456
SWIDTH 512 0
DWIDTH 8 0
BBX 8 15 0 -3
BITMAP
00
00
41
41
40
43
41
41
41
41
41
75
05
02
00
ENDCHAR
STARTCHAR uni01C9
ENCODING 457
SWIDTH 512 0
DWIDTH 8 0
BBX 8 15 0 -3
BITMAP
00
00
41
41
40
43
41
41
41
41
41
35
05
02
00
ENDCHAR
STARTCHAR uni01CA
ENCODING 458
SWIDTH 512 0
DWIDTH 8 0
BBX 8 15 0 -3
BITMAP
00
00
4B
49
49
69
59
49
49
4D
4D
4A
00
00
00
ENDCHAR
STARTCHAR uni01CB
ENCODING 459
SWIDTH 512 0
DWIDTH 8 0
BBX 8 15 0 -3
BITMAP
00
00
49
49
48
6B
59
49
49
49
49
49
05
02
00
ENDCHAR
STARTCHAR uni01CC
ENCODING 460
SWIDTH 512 0
DWIDTH 8 0
BBX 8 15 0 -3
BITMAP
00
00
01
01
00
53
69
49
49
49
49
49
05
02
00
ENDCHAR
STARTCHAR uni01CD
ENCODING 461
SWIDTH 512 0
DWIDTH 8 0
BBX 8 15 0 -3
BITMAP
24
18
00
18
24
42
42
42
7E
42
42
42
00
00
00
ENDCHAR
STARTCHAR uni01CE
ENCODING 462
SWIDTH 512 0
DWIDTH 8 0
BBX 8 15 0 -3
BITMAP
00
24
18
00
00
3C
42
0E
32
42
46
3A
00
00
00
ENDCHAR
STARTCHAR uni01CF
ENCODING 463
SWIDTH 512 0
DWIDTH 8 0
BBX 8 15 0 -3
BITMAP
14
08
00
3E
08
08
08
08
08
08
08
3E
00
00
00
ENDCHAR
STARTCHAR uni01D0
ENCODING 464
SWIDTH 512 0
DWIDTH 8 0
BBX 8 15 0 -3
BITMAP
00
00
14
08
00
18
08
08
08
08
08
3E
00
00
00
ENDCHAR
STARTCHAR uni01D1
ENCODING 465
SWIDTH 512 0
DWIDTH 8 0
BBX 8 15 0 -3
BITMAP
24
18
00
3C
42
42
42
42
42
42
42
3C
00
00
00
ENDCHAR
STARTCHAR uni01D2
ENCODING 466
SWIDTH 512 0
DWIDTH 8 0
BBX 8 15 0 -3
BITMAP
00
00
24
18
00
3C
42
42
42
42
42
3C
00
00
00
ENDCHAR
STARTCHAR uni01D3
ENCODING 467
SWIDTH 512 0
DWIDTH 8 0
BBX 8 15 0 -3
BITMAP
24
18
00
42
42
42
42
42
42
42
42
3C
00
00
00
ENDCHAR
STARTCHAR uni01D4
ENCODING 468
SWIDTH 512 0
DWIDTH 8 0
BBX 8 15 0 -3
BITMAP
00
00
24
18
00
42
42
42
42
42
46
3A
00
00
00
ENDCHAR
STARTCHAR uni01D5
ENCODING 469
SWIDTH 512 0
DWIDTH 8 0
BBX 8 15 0 -3
BITMAP
3C
00
24
00
42
42
42
42
42
42
42
3C
00
00
00
ENDCHAR
STARTCHAR uni01D6
ENCODING 470
SWIDTH 512 0
DWIDTH 8 0
BBX 8 15 0 -3
BITMAP
00
3C
00
24
00
42
42
42
42
42
46
3A
00
00
00
ENDCHAR
STARTCHAR uni01D7
ENCODING 471
SWIDTH 512 0
DWIDTH 8 0
BBX 8 15 0 -3
BITMAP
08
10
44
00
42
42
42
42
42
42
42
3C
00
00
00
ENDCHAR
STARTCHAR uni01D8
ENCODING 472
SWIDTH 512 0
DWIDTH 8 0
BBX 8 15 0 -3
BITMAP
00
08
10
44
00
42
42
42
42
42
46
3A
00
00
00
ENDCHAR
STARTCHAR uni01D9
ENCODING 473
SWIDTH 512 0
DWIDTH 8 0
BBX 8 15 0 -3
BITMAP
28
10
44
00
42
42
42
42
42
42
42
3C
00
00
00
ENDCHAR
STARTCHAR uni01DA
ENCODING 474
SWIDTH 512 0
DWIDTH 8 0
BBX 8 15 0 -3
BITMAP
00
28
10
44
00
42
42
42
42
42
46
3A
00
00
00
ENDCHAR
STARTCHAR uni01DB
ENCODING 475
SWIDTH 512 0
DWIDTH 8 0
BBX 8 15 0 -3
BITMAP
10
08
22
00
42
42
42
42
42
42
42
3C
00
00
00
ENDCHAR
STARTCHAR uni01DC
ENCODING 476
SWIDTH 512 0
DWIDTH 8 0
BBX 8 15 0 -3
BITMAP
00
10
08
22
00
42
42
42
42
42
46
3A
00
00
00
ENDCHAR
STARTCHAR uni01DD
ENCODING 477
SWIDTH 512 0
DWIDTH 8 0
BBX 8 15 0 -3
BITMAP
00
00
00
00
00
3C
42
02
7E
42
42
3C
00
00
00
ENDCHAR
STARTCHAR uni01DE
ENCODING 478
SWIDTH 512 0
DWIDTH 8 0
BBX 8 15 0 -3
BITMAP
3C
00
24
00
18
24
42
7E
42
42
42
42
00
00
00
ENDCHAR
STARTCHAR uni01DF
ENCODING 479
SWIDTH 512 0
DWIDTH 8 0
BBX 8 15 0 -3
BITMAP
00
3C
00
24
00
3C
42
0E
32
42
46
3A
00
00
00
ENDCHAR
STARTCHAR uni01E0
ENCODING 480
SWIDTH 512 0
DWIDTH 8 0
BBX 8 15 0 -3
BITMAP
3C
00
18
00
18
24
42
7E
42
42
42
42
00
00
00
ENDCHAR
STARTCHAR uni01E1
ENCODING 481
SWIDTH 512 0
DWIDTH 8 0
BBX 8 15 0 -3
BITMAP
00
3C
00
18
00
3C
42
0E
32
42
46
3A
00
00
00
ENDCHAR
STARTCHAR uni01E2
ENCODING 482
SWIDTH 512 0
DWIDTH 8 0
BBX 8 15 0 -3
BITMAP
3C
00
1E
28
48
48
7E
48
48
48
48
4E
00
00
00
ENDCHAR
STARTCHAR uni01E3
ENCODING 483
SWIDTH 512 0
DWIDTH 8 0
BBX 8 15 0 -3
BITMAP
00
00
00
3E
00
3E
49
19
2F
48
49
3E
00
00
00
ENDCHAR
STARTCHAR uni01E4
ENCODING 484
SWIDTH 512 0
DWIDTH 8 0
BBX 8 15 0 -3
BITMAP
00
00
38
44
44
40
40
4C
44
4E
44
38
00
00
00
ENDCHAR
STARTCHAR uni01E5
ENCODING 485
SWIDTH 512 0
DWIDTH 8 0
BBX 8 15 0 -3
BITMAP
00
00
00
00
00
3A
44
44
44
38
24
4E
44
38
00
ENDCHAR
STARTCHAR Gcaron
ENCODING 486
SWIDTH 512 0
DWIDTH 8 0
BBX 8 15 0 -3
BITMAP
24
18
00
3C
42
40
40
4E
42
42
46
3A
00
00
00
ENDCHAR
STARTCHAR gcaron
ENCODING 487
SWIDTH 512 0
DWIDTH 8 0
BBX 8 15 0 -3
BITMAP
00
00
24
18
00
3A
44
44
44
38
20
5C
42
3C
00
ENDCHAR
STARTCHAR uni01E8
ENCODING 488
SWIDTH 512 0
DWIDTH 8 0
BBX 8 15 0 -3
BITMAP
24
18
00
42
44
48
50
60
50
48
44
42
00
00
00
ENDCHAR
STARTCHAR uni01E9
ENCODING 489
SWIDTH 512 0
DWIDTH 8 0
BBX 8 15 0 -3
BITMAP
00
24
18
40
40
44
48
50
70
48
44
42
00
00
00
ENDCHAR
STARTCHAR uni01EA
ENCODING 490
SWIDTH 512 0
DWIDTH 8 0
BBX 8 15 0 -3
BITMAP
00
00
3C
42
42
42
42
42
42
42
42
3C
10
0C
00
ENDCHAR
STARTCHAR uni01EB
ENCODING 491
SWIDTH 512 0
DWIDTH 8 0
BBX 8 15 0 -3
BITMAP
00
00
00
00
00
3C
42
42
42
42
42
3C
10
0C
00
ENDCHAR
STARTCHAR uni01EC
ENCODING 492
SWIDTH 512 0
DWIDTH 8 0
BBX 8 15 0 -3
BITMAP
3C
00
3C
42
42
42
42
42
42
42
42
3C
10
0C
00
ENDCHAR
STARTCHAR uni01ED
ENCODING 493
SWIDTH 512 0
DWIDTH 8 0
BBX 8 15 0 -3
BITMAP
00
00
00
3C
00
3C
42
42
42
42
42
3C
10
0C
00
ENDCHAR
STARTCHAR uni01EE
ENCODING 494
SWIDTH 512 0
DWIDTH 8 0
BBX 8 15 0 -3
BITMAP
24
18
00
7E
04
08
1C
02
42
42
44
38
00
00
00
ENDCHAR
STARTCHAR uni01EF
ENCODING 495
SWIDTH 512 0
DWIDTH 8 0
BBX 8 15 0 -3
BITMAP
00
00
24
18
00
7E
04
08
10
3C
02
42
42
3C
00
ENDCHAR
STARTCHAR uni01F0
ENCODING 496
SWIDTH 512 0
DWIDTH 8 0
BBX 8 15 0 -3
BITMAP
00
00
12
0C
00
0C
04
04
04
04
04
44
44
38
00
ENDCHAR
STARTCHAR uni01F1
ENCODING 497
SWIDTH 512 0
DWIDTH 8 0
BBX 8 15 0 -3
BITMAP
00
00
67
51
51
51
52
52
54
54
54
67
00
00
00
ENDCHAR
STARTCHAR uni01F2
ENCODING 498
SWIDTH 512 0
DWIDTH 8 0
BBX 8 15 0 -3
BITMAP
00
00
60
50
50
57
51
52
52
54
54
67
00
00
00
ENDCHAR
STARTCHAR uni01F3
ENCODING 499
SWIDTH 512 0
DWIDTH 8 0
BBX 8 15 0 -3
BITMAP
00
00
10
10
10
37
51
52
52
52
54
37
00
00
00
ENDCHAR
STARTCHAR uni01F4
ENCODING 500
SWIDTH 512 0
DWIDTH 8 0
BBX 8 15 0 -3
BITMAP
08
10
00
3C
42
40
40
4E
42
42
46
3A
00
00
00
ENDCHAR
STARTCHAR uni01F5
ENCODING 501
SWIDTH 512 0
DWIDTH 8 0
BBX 8 15 0 -3
BITMAP
00
00
08
10
00
3A
44
44
44
38
20
5C
42
3C
00
ENDCHAR
STARTCHAR uni01F6
ENCODING 502
SWIDTH 512 0
DWIDTH 8 0
BBX 8 15 0 -3
BITMAP
00
00
48
48
48
4A
7A
4A
4A
4A
4A
44
00
00
00
ENDCHAR
STARTCHAR uni01F7
ENCODING 503
SWIDTH 512 0
DWIDTH 8 0
BBX 8 15 0 -3
BITMAP
00
00
5C
62
42
44
48
50
60
40
40
40
00
00
00
ENDCHAR
STARTCHAR uni01F8
ENCODING 504
SWIDTH 512 0
DWIDTH 8 0
BBX 8 15 0 -3
BITMAP
10
08
42
42
62
62
52
4A
46
46
42
42
00
00
00
ENDCHAR
STARTCHAR uni01F9
ENCODING 505
SWIDTH 512 0
DWIDTH 8 0
BBX 8 15 0 -3
BITMAP
00
00
10
08
00
5C
62
42
42
42
42
42
00
00
00
ENDCHAR
STARTCHAR Aringacute
ENCODING 506
SWIDTH 512 0
DWIDTH 8 0
BBX 8 15 0 -3
BITMAP
08
10
18
24
18
24
42
7E
42
42
42
42
00
00
00
ENDCHAR
STARTCHAR aringacute
ENCODING 507
SWIDTH 512 0
DWIDTH 8 0
BBX 8 15 0 -3
BITMAP
08
10
18
24
18
3C
42
0E
32
42
46
3A
00
00
00
ENDCHAR
STARTCHAR AEacute
ENCODING 508
SWIDTH 512 0
DWIDTH 8 0
BBX 8 15 0 -3
BITMAP
04
08
00
3E
48
48
48
7E
48
48
48
4E
00
00
00
ENDCHAR
STARTCHAR aeacute
ENCODING 509
SWIDTH 512 0
DWIDTH 8 0
BBX 8 15 0 -3
BITMAP
00
00
04
08
00
3E
49
19
2F
48
49
3E
00
00
00
ENDCHAR
STARTCHAR Oslashacute
ENCODING 510
SWIDTH 512 0
DWIDTH 8 0
BBX 8 15 0 -3
BITMAP
08
12
02
3C
46
4A
4A
52
52
52
62
3C
40
40
00
ENDCHAR
STARTCHAR oslashacute
ENCODING 511
SWIDTH 512 0
DWIDTH 8 0
BBX 8 15 0 -3
BITMAP
00
00
08
12
04
3C
4A
4A
52
52
62
3C
40
40
00
ENDCHAR
STARTCHAR uni0200
ENCODING 512
SWIDTH 512 0
DWIDTH 8 0
BBX 8 15 0 -3
BITMAP
48
24
00
18
24
42
42
42
7E
42
42
42
00
00
00
ENDCHAR
STARTCHAR uni0201
ENCODING 513
SWIDTH 512 0
DWIDTH 8 0
BBX 8 15 0 -3
BITMAP
00
00
24
12
00
3C
42
0E
32
42
46
3A
00
00
00
ENDCHAR
STARTCHAR uni0202
ENCODING 514
SWIDTH 512 0
DWIDTH 8 0
BBX 8 15 0 -3
BITMAP
3C
42
00
18
24
42
42
42
7E
42
42
42
00
00
00
ENDCHAR
STARTCHAR uni0203
ENCODING 515
SWIDTH 512 0
DWIDTH 8 0
BBX 8 15 0 -3
BITMAP
00
00
3C
42
00
3C
42
0E
32
42
46
3A
00
00
00
ENDCHAR
STARTCHAR uni0204
ENCODING 516
SWIDTH 512 0
DWIDTH 8 0
BBX 8 15 0 -3
BITMAP
24
12
00
7E
40
40
40
78
40
40
40
7E
00
00
00
ENDCHAR
STARTCHAR uni0205
ENCODING 517
SWIDTH 512 0
DWIDTH 8 0
BBX 8 15 0 -3
BITMAP
00
00
24
12
00
3C
42
42
7E
40
42
3C
00
00
00
ENDCHAR
STARTCHAR uni0206
ENCODING 518
SWIDTH 512 0
DWIDTH 8 0
BBX 8 15 0 -3
BITMAP
3C
42
00
7E
40
40
40
78
40
40
40
7E
00
00
00
ENDCHAR
STARTCHAR uni0207
ENCODING 519
SWIDTH 512 0
DWIDTH 8 0
BBX 8 15 0 -3
BITMAP
00
00
3C
42
00
3C
42
42
7E
40
42
3C
00
00
00
ENDCHAR
STARTCHAR uni0208
ENCODING 520
SWIDTH 512 0
DWIDTH 8 0
BBX 8 15 0 -3
BITMAP
24
12
00
3E
08
08
08
08
08
08
08
3E
00
00
00
ENDCHAR
STARTCHAR uni0209
ENCODING 521
SWIDTH 512 0
DWIDTH 8 0
BBX 8 15 0 -3
BITMAP
00
00
24
12
00
18
08
08
08
08
08
3E
00
00
00
ENDCHAR
STARTCHAR uni020A
ENCODING 522
SWIDTH 512 0
DWIDTH 8 0
BBX 8 15 0 -3
BITMAP
1C
22
00
3E
08
08
08
08
08
08
08
3E
00
00
00
ENDCHAR
STARTCHAR uni020B
ENCODING 523
SWIDTH 512 0
DWIDTH 8 0
BBX 8 15 0 -3
BITMAP
00
00
1C
22
00
18
08
08
08
08
08
3E
00
00
00
ENDCHAR
STARTCHAR uni020C
ENCODING 524
SWIDTH 512 0
DWIDTH 8 0
BBX 8 15 0 -3
BITMAP
24
12
00
3C
42
42
42
42
42
42
42
3C
00
00
00
ENDCHAR
STARTCHAR uni020D
ENCODING 525
SWIDTH 512 0
DWIDTH 8 0
BBX 8 15 0 -3
BITMAP
00
00
24
12
00
3C
42
42
42
42
42
3C
00
00
00
ENDCHAR
STARTCHAR uni020E
ENCODING 526
SWIDTH 512 0
DWIDTH 8 0
BBX 8 15 0 -3
BITMAP
3C
42
00
3C
42
42
42
42
42
42
42
3C
00
00
00
ENDCHAR
STARTCHAR uni020F
ENCODING 527
SWIDTH 512 0
DWIDTH 8 0
BBX 8 15 0 -3
BITMAP
00
00
3C
42
00
3C
42
42
42
42
42
3C
00
00
00
ENDCHAR
STARTCHAR uni0210
ENCODING 528
SWIDTH 512 0
DWIDTH 8 0
BBX 8 15 0 -3
BITMAP
24
12
00
7C
42
42
42
7C
48
44
42
42
00
00
00
ENDCHAR
STARTCHAR uni0211
ENCODING 529
SWIDTH 512 0
DWIDTH 8 0
BBX 8 15 0 -3
BITMAP
00
00
24
12
00
5C
62
42
40
40
40
40
00
00
00
ENDCHAR
STARTCHAR uni0212
ENCODING 530
SWIDTH 512 0
DWIDTH 8 0
BBX 8 15 0 -3
BITMAP
18
24
00
7C
42
42
42
7C
48
44
42
42
00
00
00
ENDCHAR
STARTCHAR uni0213
ENCODING 531
SWIDTH 512 0
DWIDTH 8 0
BBX 8 15 0 -3
BITMAP
00
00
18
24
00
5C
62
42
40
40
40
40
00
00
00
ENDCHAR
STARTCHAR uni0214
ENCODING 532
SWIDTH 512 0
DWIDTH 8 0
BBX 8 15 0 -3
BITMAP
24
12
00
42
42
42
42
42
42
42
42
3C
00
00
00
ENDCHAR
STARTCHAR uni0215
ENCODING 533
SWIDTH 512 0
DWIDTH 8 0
BBX 8 15 0 -3
BITMAP
00
00
24
12
00
42
42
42
42
42
46
3A
00
00
00
ENDCHAR
STARTCHAR uni0216
ENCODING 534
SWIDTH 512 0
DWIDTH 8 0
BBX 8 15 0 -3
BITMAP
3C
42
00
42
42
42
42
42
42
42
42
3C
00
00
00
ENDCHAR
STARTCHAR uni0217
ENCODING 535
SWIDTH 512 0
DWIDTH 8 0
BBX 8 15 0 -3
BITMAP
00
00
3C
42
00
42
42
42
42
42
46
3A
00
00
00
ENDCHAR
STARTCHAR Scommaaccent
ENCODING 536
SWIDTH 512 0
DWIDTH 8 0
BBX 8 15 0 -3
BITMAP
00
00
3C
42
42
40
30
0C
02
42
42
3C
08
10
00
ENDCHAR
STARTCHAR scommaaccent
ENCODING 537
SWIDTH 512 0
DWIDTH 8 0
BBX 8 15 0 -3
BITMAP
00
00
00
00
00
3C
42
20
18
04
42
3C
08
10
00
ENDCHAR
STARTCHAR Tcommaaccent
ENCODING 538
SWIDTH 512 0
DWIDTH 8 0
BBX 8 15 0 -3
BITMAP
00
00
7F
08
08
08
08
08
08
08
08
08
04
08
00
ENDCHAR
STARTCHAR tcommaaccent
ENCODING 539
SWIDTH 512 0
DWIDTH 8 0
BBX 8 15 0 -3
BITMAP
00
00
10
10
10
7C
10
10
10
10
12
0C
04
08
00
ENDCHAR
STARTCHAR uni021C
ENCODING 540
SWIDTH 512 0
DWIDTH 8 0
BBX 8 15 0 -3
BITMAP
00
00
7E
02
04
08
1C
02
02
02
42
3C
00
00
00
ENDCHAR
STARTCHAR uni021D
ENCODING 541
SWIDTH 512 0
DWIDTH 8 0
BBX 8 15 0 -3
BITMAP
00
00
00
00
00
7E
02
04
08
1C
02
02
42
3C
00
ENDCHAR
STARTCHAR uni021E
ENCODING 542
SWIDTH 512 0
DWIDTH 8 0
BBX 8 15 0 -3
BITMAP
24
18
42
42
42
42
7E
42
42
42
42
42
00
00
00
ENDCHAR
STARTCHAR uni021F
ENCODING 543
SWIDTH 512 0
DWIDTH 8 0
BBX 8 15 0 -3
BITMAP
00
12
4C
40
40
5C
62
42
42
42
42
42
00
00
00
ENDCHAR
STARTCHAR uni0220
ENCODING 544
SWIDTH 512 0
DWIDTH 8 0
BBX 8 15 0 -3
BITMAP
00
00
6E
32
22
22
22
22
22
22
02
02
02
00
00
ENDCHAR
STARTCHAR uni0222
ENCODING 546
SWIDTH 512 0
DWIDTH 8 0
BBX 8 15 0 -3
BITMAP
00
00
24
42
42
42
3C
42
42
42
42
3C
00
00
00
ENDCHAR
STARTCHAR uni0223
ENCODING 547
SWIDTH 512 0
DWIDTH 8 0
BBX 8 15 0 -3
BITMAP
00
00
14
22
22
22
1C
22
22
22
22
1C
00
00
00
ENDCHAR
STARTCHAR uni0224
ENCODING 548
SWIDTH 512 0
DWIDTH 8 0
BBX 8 15 0 -3
BITMAP
00
00
7E
02
04
08
08
10
20
20
40
7E
02
0C
00
ENDCHAR
STARTCHAR uni0225
ENCODING 549
SWIDTH 512 0
DWIDTH 8 0
BBX 8 15 0 -3
BITMAP
00
00
00
00
00
7E
04
08
10
10
20
7E
02
0C
00
ENDCHAR
STARTCHAR uni0226
ENCODING 550
SWIDTH 512 0
DWIDTH 8 0
BBX 8 15 0 -3
BITMAP
00
18
00
18
24
42
42
42
7E
42
42
42
00
00
00
ENDCHAR
STARTCHAR uni0227
ENCODING 551
SWIDTH 512 0
DWIDTH 8 0
BBX 8 15 0 -3
BITMAP
00
00
00
18
00
3C
42
0E
32
42
46
3A
00
00
00
ENDCHAR
STARTCHAR uni0228
ENCODING 552
SWIDTH 512 0
DWIDTH 8 0
BBX 8 15 0 -3
BITMAP
00
00
7E
40
40
40
78
40
40
40
40
7E
02
0C
00
ENDCHAR
STARTCHAR uni0229
ENCODING 553
SWIDTH 512 0
DWIDTH 8 0
BBX 8 15 0 -3
BITMAP
00
00
00
00
00
3C
42
42
7E
40
42
3C
04
18
00
ENDCHAR
STARTCHAR uni022A
ENCODING 554
SWIDTH 512 0
DWIDTH 8 0
BBX 8 15 0 -3
BITMAP
3C
00
24
00
3C
42
42
42
42
42
42
3C
00
00
00
ENDCHAR
STARTCHAR uni022B
ENCODING 555
SWIDTH 512 0
DWIDTH 8 0
BBX 8 15 0 -3
BITMAP
00
3C
00
24
00
3C
42
42
42
42
42
3C
00
00
00
ENDCHAR
STARTCHAR uni022C
ENCODING 556
SWIDTH 512 0
DWIDTH 8 0
BBX 8 15 0 -3
BITMAP
3C
32
4C
00
3C
42
42
42
42
42
42
3C
00
00
00
ENDCHAR
STARTCHAR uni022D
ENCODING 557
SWIDTH 512 0
DWIDTH 8 0
BBX 8 15 0 -3
BITMAP
3C
00
32
4C
00
3C
42
42
42
42
42
3C
00
00
00
ENDCHAR
STARTCHAR uni022E
ENCODING 558
SWIDTH 512 0
DWIDTH 8 0
BBX 8 15 0 -3
BITMAP
00
18
00
3C
42
42
42
42
42
42
42
3C
00
00
00
ENDCHAR
STARTCHAR uni022F
ENCODING 559
SWIDTH 512 0
DWIDTH 8 0
BBX 8 15 0 -3
BITMAP
00
00
00
18
00
3C
42
42
42
42
42
3C
00
00
00
ENDCHAR
STARTCHAR uni0230
ENCODING 560
SWIDTH 512 0
DWIDTH 8 0
BBX 8 15 0 -3
BITMAP
3C
00
18
00
3C
42
42
42
42
42
42
3C
00
00
00
ENDCHAR
STARTCHAR uni0231
ENCODING 561
SWIDTH 512 0
DWIDTH 8 0
BBX 8 15 0 -3
BITMAP
00
3C
00
18
00
3C
42
42
42
42
42
3C
00
00
00
ENDCHAR
STARTCHAR uni0232
ENCODING 562
SWIDTH 512 0
DWIDTH 8 0
BBX 8 15 0 -3
BITMAP
3E
00
22
22
22
14
14
08
08
08
08
08
00
00
00
ENDCHAR
STARTCHAR uni0233
ENCODING 563
SWIDTH 512 0
DWIDTH 8 0
BBX 8 15 0 -3
BITMAP
00
00
00
3C
00
42
42
42
42
46
3A
02
42
3C
00
ENDCHAR
STARTCHAR uni0250
ENCODING 592
SWIDTH 512 0
DWIDTH 8 0
BBX 8 15 0 -3
BITMAP
00
00
00
00
00
5C
62
42
4C
70
42
3C
00
00
00
ENDCHAR
STARTCHAR uni0251
ENCODING 593
SWIDTH 512 0
DWIDTH 8 0
BBX 8 15 0 -3
BITMAP
00
00
00
00
00
3A
46
42
42
42
46
3A
00
00
00
ENDCHAR
STARTCHAR uni0252
ENCODING 594
SWIDTH 512 0
DWIDTH 8 0
BBX 8 15 0 -3
BITMAP
00
00
00
00
00
5C
62
42
42
42
62
5C
00
00
00
ENDCHAR
STARTCHAR uni0253
ENCODING 595
SWIDTH 512 0
DWIDTH 8 0
BBX 8 15 0 -3
BITMAP
00
00
38
44
40
40
5C
62
42
42
62
5C
00
00
00
ENDCHAR
STARTCHAR uni0254
ENCODING 596
SWIDTH 512 0
DWIDTH 8 0
BBX 8 15 0 -3
BITMAP
00
00
00
00
00
3C
42
02
02
02
42
3C
00
00
00
ENDCHAR
STARTCHAR uni0255
ENCODING 597
SWIDTH 512 0
DWIDTH 8 0
BBX 8 15 0 -3
BITMAP
00
00
00
00
00
3C
42
40
40
4C
52
3C
10
00
00
ENDCHAR
STARTCHAR uni0256
ENCODING 598
SWIDTH 512 0
DWIDTH 8 0
BBX 8 15 0 -3
BITMAP
00
00
04
04
04
34
4C
44
44
44
4C
35
05
02
00
ENDCHAR
STARTCHAR uni0257
ENCODING 599
SWIDTH 512 0
DWIDTH 8 0
BBX 8 15 0 -3
BITMAP
00
02
05
05
04
34
4C
44
44
44
4C
34
00
00
00
ENDCHAR
STARTCHAR uni0258
ENCODING 600
SWIDTH 512 0
DWIDTH 8 0
BBX 8 15 0 -3
BITMAP
00
00
00
00
00
3C
42
42
7E
02
42
3C
00
00
00
ENDCHAR
STARTCHAR uni0259
ENCODING 601
SWIDTH 512 0
DWIDTH 8 0
BBX 8 15 0 -3
BITMAP
00
00
00
00
00
3C
42
02
7E
42
42
3C
00
00
00
ENDCHAR
STARTCHAR uni025A
ENCODING 602
SWIDTH 512 0
DWIDTH 8 0
BBX 8 15 0 -3
BITMAP
00
00
00
00
00
30
48
1C
2A
48
48
30
00
00
00
ENDCHAR
STARTCHAR uni025B
ENCODING 603
SWIDTH 512 0
DWIDTH 8 0
BBX 8 15 0 -3
BITMAP
00
00
00
00
00
3C
42
40
38
40
42
3C
00
00
00
ENDCHAR
STARTCHAR uni025C
ENCODING 604
SWIDTH 512 0
DWIDTH 8 0
BBX 8 15 0 -3
BITMAP
00
00
00
00
00
3C
42
02
1C
02
42
3C
00
00
00
ENDCHAR
STARTCHAR uni025D
ENCODING 605
SWIDTH 512 0
DWIDTH 8 0
BBX 8 15 0 -3
BITMAP
00
00
00
00
00
3A
45
04
18
04
44
38
00
00
00
ENDCHAR
STARTCHAR uni025E
ENCODING 606
SWIDTH 512 0
DWIDTH 8 0
BBX 8 15 0 -3
BITMAP
00
00
00
00
00
3C
42
42
5C
42
42
3C
00
00
00
ENDCHAR
STARTCHAR uni025F
ENCODING 607
SWIDTH 512 0
DWIDTH 8 0
BBX 8 15 0 -3
BITMAP
00
00
00
00
08
08
08
08
08
3E
08
08
48
30
00
ENDCHAR
STARTCHAR uni0260
ENCODING 608
SWIDTH 512 0
DWIDTH 8 0
BBX 8 15 0 -3
BITMAP
00
00
00
02
04
34
4C
44
44
4C
34
04
44
38
00
ENDCHAR
STARTCHAR uni0261
ENCODING 609
SWIDTH 512 0
DWIDTH 8 0
BBX 8 15 0 -3
BITMAP
00
00
00
00
00
3A
46
42
42
46
3A
02
42
3C
00
ENDCHAR
STARTCHAR uni0262
ENCODING 610
SWIDTH 512 0
DWIDTH 8 0
BBX 8 15 0 -3
BITMAP
00
00
00
00
00
3C
42
40
4E
42
46
3A
00
00
00
ENDCHAR
STARTCHAR uni0263
ENCODING 611
SWIDTH 512 0
DWIDTH 8 0
BBX 8 15 0 -3
BITMAP
00
00
00
00
00
22
22
14
14
08
08
14
14
08
00
ENDCHAR
STARTCHAR uni0264
ENCODING 612
SWIDTH 512 0
DWIDTH 8 0
BBX 8 15 0 -3
BITMAP
00
00
00
00
00
22
55
14
08
08
14
08
00
00
00
ENDCHAR
STARTCHAR uni0265
ENCODING 613
SWIDTH 512 0
DWIDTH 8 0
BBX 8 15 0 -3
BITMAP
00
00
00
00
00
42
42
42
42
42
46
3A
02
02
00
ENDCHAR
STARTCHAR uni0266
ENCODING 614
SWIDTH 512 0
DWIDTH 8 0
BBX 8 15 0 -3
BITMAP
00
38
44
40
40
5C
62
42
42
42
42
42
00
00
00
ENDCHAR
STARTCHAR uni0267
ENCODING 615
SWIDTH 512 0
DWIDTH 8 0
BBX 8 15 0 -3
BITMAP
00
38
44
40
40
5C
62
42
42
42
42
42
12
0C
00
ENDCHAR
STARTCHAR uni0268
ENCODING 616
SWIDTH 512 0
DWIDTH 8 0
BBX 8 15 0 -3
BITMAP
00
00
08
08
00
18
08
08
3E
08
08
3E
00
00
00
ENDCHAR
STARTCHAR uni0269
ENCODING 617
SWIDTH 512 0
DWIDTH 8 0
BBX 8 15 0 -3
BITMAP
00
00
00
00
00
18
08
08
08
08
08
06
00
00
00
ENDCHAR
STARTCHAR uni026A
ENCODING 618
SWIDTH 512 0
DWIDTH 8 0
BBX 8 15 0 -3
BITMAP
00
00
00
00
00
3E
08
08
08
08
08
3E
00
00
00
ENDCHAR
STARTCHAR uni026B
ENCODING 619
SWIDTH 512 0
DWIDTH 8 0
BBX 8 15 0 -3
BITMAP
00
00
18
08
08
08
1A
2C
08
08
08
3E
00
00
00
ENDCHAR
STARTCHAR uni026C
ENCODING 620
SWIDTH 512 0
DWIDTH 8 0
BBX 8 15 0 -3
BITMAP
00
00
18
08
08
18
28
1C
08
08
08
3E
00
00
00
ENDCHAR
STARTCHAR uni026D
ENCODING 621
SWIDTH 512 0
DWIDTH 8 0
BBX 8 15 0 -3
BITMAP
00
00
18
08
08
08
08
08
08
08
08
08
08
06
00
ENDCHAR
STARTCHAR uni026E
ENCODING 622
SWIDTH 512 0
DWIDTH 8 0
BBX 8 15 0 -3
BITMAP
00
00
60
20
20
2F
21
22
24
2E
21
71
01
1E
00
ENDCHAR
STARTCHAR uni026F
ENCODING 623
SWIDTH 512 0
DWIDTH 8 0
BBX 8 15 0 -3
BITMAP
00
00
00
00
00
22
2A
2A
2A
2A
2A
16
00
00
00
ENDCHAR
STARTCHAR uni0270
ENCODING 624
SWIDTH 512 0
DWIDTH 8 0
BBX 8 15 0 -3
BITMAP
00
00
00
00
00
22
2A
2A
2A
2A
2A
16
02
02
00
ENDCHAR
STARTCHAR uni0271
ENCODING 625
SWIDTH 512 0
DWIDTH 8 0
BBX 8 15 0 -3
BITMAP
00
00
00
00
00
34
2A
2A
2A
2A
2A
22
02
0C
00
ENDCHAR
STARTCHAR uni0272
ENCODING 626
SWIDTH 512 0
DWIDTH 8 0
BBX 8 15 0 -3
BITMAP
00
00
00
00
00
16
19
11
11
11
51
51
20
00
00
ENDCHAR
STARTCHAR uni0273
ENCODING 627
SWIDTH 512 0
DWIDTH 8 0
BBX 8 15 0 -3
BITMAP
00
00
00
00
00
58
64
44
44
44
44
45
05
02
00
ENDCHAR
STARTCHAR uni0274
ENCODING 628
SWIDTH 512 0
DWIDTH 8 0
BBX 8 15 0 -3
BITMAP
00
00
00
00
00
42
62
52
4A
46
42
42
00
00
00
ENDCHAR
STARTCHAR uni0275
ENCODING 629
SWIDTH 512 0
DWIDTH 8 0
BBX 8 15 0 -3
BITMAP
00
00
00
00
00
3C
42
42
7E
42
42
3C
00
00
00
ENDCHAR
STARTCHAR uni0276
ENCODING 630
SWIDTH 512 0
DWIDTH 8 0
BBX 8 15 0 -3
BITMAP
00
00
00
00
00
3E
48
48
4E
48
48
3E
00
00
00
ENDCHAR
STARTCHAR uni0277
ENCODING 631
SWIDTH 512 0
DWIDTH 8 0
BBX 8 15 0 -3
BITMAP
00
00
00
00
00
1C
22
2A
2A
2A
2A
14
00
00
00
ENDCHAR
STARTCHAR uni0278
ENCODING 632
SWIDTH 512 0
DWIDTH 8 0
BBX 8 15 0 -3
BITMAP
00
00
00
08
08
1C
2A
2A
2A
2A
2A
1C
08
08
00
ENDCHAR
STARTCHAR uni0279
ENCODING 633
SWIDTH 512 0
DWIDTH 8 0
BBX 8 15 0 -3
BITMAP
00
00
00
00
00
02
02
02
02
42
46
3A
00
00
00
ENDCHAR
STARTCHAR uni027A
ENCODING 634
SWIDTH 512 0
DWIDTH 8 0
BBX 8 15 0 -3
BITMAP
00
00
02
02
02
02
02
02
02
42
46
3A
00
00
00
ENDCHAR
STARTCHAR uni027B
ENCODING 635
SWIDTH 512 0
DWIDTH 8 0
BBX 8 15 0 -3
BITMAP
00
00
00
00
00
04
04
04
04
44
4C
34
04
02
00
ENDCHAR
STARTCHAR uni027C
ENCODING 636
SWIDTH 512 0
DWIDTH 8 0
BBX 8 15 0 -3
BITMAP
00
00
00
00
00
5C
62
42
40
40
40
40
40
40
00
ENDCHAR
STARTCHAR uni027D
ENCODING 637
SWIDTH 512 0
DWIDTH 8 0
BBX 8 15 0 -3
BITMAP
00
00
00
00
00
5C
62
42
40
40
40
40
44
38
00
ENDCHAR
STARTCHAR uni027E
ENCODING 638
SWIDTH 512 0
DWIDTH 8 0
BBX 8 15 0 -3
BITMAP
00
00
00
00
00
1C
22
42
40
40
40
40
00
00
00
ENDCHAR
STARTCHAR uni027F
ENCODING 639
SWIDTH 512 0
DWIDTH 8 0
BBX 8 15 0 -3
BITMAP
00
00
00
00
00
38
44
42
02
02
02
02
00
00
00
ENDCHAR
STARTCHAR uni0280
ENCODING 640
SWIDTH 512 0
DWIDTH 8 0
BBX 8 15 0 -3
BITMAP
00
00
00
00
00
7C
42
42
7C
42
42
42
00
00
00
ENDCHAR
STARTCHAR uni0281
ENCODING 641
SWIDTH 512 0
DWIDTH 8 0
BBX 8 15 0 -3
BITMAP
00
00
00
00
00
42
42
42
7C
42
42
7C
00
00
00
ENDCHAR
STARTCHAR uni0282
ENCODING 642
SWIDTH 512 0
DWIDTH 8 0
BBX 8 15 0 -3
BITMAP
00
00
00
00
00
3C
42
20
18
04
42
7C
40
30
00
ENDCHAR
STARTCHAR uni0283
ENCODING 643
SWIDTH 512 0
DWIDTH 8 0
BBX 8 15 0 -3
BITMAP
00
04
0A
0A
08
08
08
08
08
08
08
28
28
10
00
ENDCHAR
STARTCHAR uni0284
ENCODING 644
SWIDTH 512 0
DWIDTH 8 0
BBX 8 15 0 -3
BITMAP
00
04
0A
0A
08
08
08
08
08
1C
08
28
28
10
00
ENDCHAR
STARTCHAR uni0285
ENCODING 645
SWIDTH 512 0
DWIDTH 8 0
BBX 8 15 0 -3
BITMAP
00
00
00
00
10
28
28
08
08
0A
0A
04
00
00
00
ENDCHAR
STARTCHAR uni0286
ENCODING 646
SWIDTH 512 0
DWIDTH 8 0
BBX 8 15 0 -3
BITMAP
00
04
0A
0A
08
08
08
08
08
08
1C
2A
2A
10
00
ENDCHAR
STARTCHAR uni0287
ENCODING 647
SWIDTH 512 0
DWIDTH 8 0
BBX 8 15 0 -3
BITMAP
00
00
00
00
00
30
48
08
08
08
3E
08
08
08
00
ENDCHAR
STARTCHAR uni0288
ENCODING 648
SWIDTH 512 0
DWIDTH 8 0
BBX 8 15 0 -3
BITMAP
00
00
10
10
10
7C
10
10
10
10
10
10
12
0C
00
ENDCHAR
STARTCHAR uni0289
ENCODING 649
SWIDTH 512 0
DWIDTH 8 0
BBX 8 15 0 -3
BITMAP
00
00
00
00
00
22
22
7F
22
22
26
1A
00
00
00
ENDCHAR
STARTCHAR uni028A
ENCODING 650
SWIDTH 512 0
DWIDTH 8 0
BBX 8 15 0 -3
BITMAP
00
00
00
00
00
66
24
42
42
42
42
3C
00
00
00
ENDCHAR
STARTCHAR uni028B
ENCODING 651
SWIDTH 512 0
DWIDTH 8 0
BBX 8 15 0 -3
BITMAP
00
00
00
00
00
48
44
44
42
42
42
3C
00
00
00
ENDCHAR
STARTCHAR uni028C
ENCODING 652
SWIDTH 512 0
DWIDTH 8 0
BBX 8 15 0 -3
BITMAP
00
00
00
00
00
08
08
14
14
22
22
22
00
00
00
ENDCHAR
STARTCHAR uni028D
ENCODING 653
SWIDTH 512 0
DWIDTH 8 0
BBX 8 15 0 -3
BITMAP
00
00
00
00
00
14
2A
2A
2A
2A
22
22
00
00
00
ENDCHAR
STARTCHAR uni028E
ENCODING 654
SWIDTH 512 0
DWIDTH 8 0
BBX 8 15 0 -3
BITMAP
00
00
00
04
0A
08
10
10
28
28
44
44
00
00
00
ENDCHAR
STARTCHAR uni028F
ENCODING 655
SWIDTH 512 0
DWIDTH 8 0
BBX 8 15 0 -3
BITMAP
00
00
00
00
00
41
22
14
08
08
08
08
00
00
00
ENDCHAR
STARTCHAR uni0290
ENCODING 656
SWIDTH 512 0
DWIDTH 8 0
BBX 8 15 0 -3
BITMAP
00
00
00
00
00
7E
04
08
10
10
20
7C
04
02
00
ENDCHAR
STARTCHAR uni0291
ENCODING 657
SWIDTH 512 0
DWIDTH 8 0
BBX 8 15 0 -3
BITMAP
00
00
00
00
00
7E
04
08
10
14
2A
7C
08
00
00
ENDCHAR
STARTCHAR uni0292
ENCODING 658
SWIDTH 512 0
DWIDTH 8 0
BBX 8 15 0 -3
BITMAP
00
00
00
00
00
7E
04
08
10
3C
02
42
42
3C
00
ENDCHAR
STARTCHAR uni0293
ENCODING 659
SWIDTH 512 0
DWIDTH 8 0
BBX 8 15 0 -3
BITMAP
00
00
00
00
00
7E
04
08
10
3C
02
32
4A
3C
00
ENDCHAR
STARTCHAR uni0294
ENCODING 660
SWIDTH 512 0
DWIDTH 8 0
BBX 8 15 0 -3
BITMAP
00
00
1C
22
22
04
08
08
08
08
08
08
00
00
00
ENDCHAR
STARTCHAR uni0295
ENCODING 661
SWIDTH 512 0
DWIDTH 8 0
BBX 8 15 0 -3
BITMAP
00
00
1C
22
22
10
08
08
08
08
08
08
00
00
00
ENDCHAR
STARTCHAR uni0296
ENCODING 662
SWIDTH 512 0
DWIDTH 8 0
BBX 8 15 0 -3
BITMAP
00
00
08
08
08
08
08
08
04
22
22
1C
00
00
00
ENDCHAR
STARTCHAR uni0297
ENCODING 663
SWIDTH 512 0
DWIDTH 8 0
BBX 8 15 0 -3
BITMAP
00
00
00
3C
42
40
40
40
40
40
40
40
42
3C
00
ENDCHAR
STARTCHAR uni0298
ENCODING 664
SWIDTH 512 0
DWIDTH 8 0
BBX 8 15 0 -3
BITMAP
00
00
00
00
00
3E
41
41
49
41
41
3E
00
00
00
ENDCHAR
STARTCHAR uni0299
ENCODING 665
SWIDTH 512 0
DWIDTH 8 0
BBX 8 15 0 -3
BITMAP
00
00
00
00
00
7C
42
42
7C
42
42
7C
00
00
00
ENDCHAR
STARTCHAR uni029A
ENCODING 666
SWIDTH 512 0
DWIDTH 8 0
BBX 8 15 0 -3
BITMAP
00
00
00
00
00
3C
42
42
3A
42
42
3C
00
00
00
ENDCHAR
STARTCHAR uni029B
ENCODING 667
SWIDTH 512 0
DWIDTH 8 0
BBX 8 15 0 -3
BITMAP
00
00
00
00
03
3C
42
40
4E
42
46
3A
00
00
00
ENDCHAR
STARTCHAR uni029C
ENCODING 668
SWIDTH 512 0
DWIDTH 8 0
BBX 8 15 0 -3
BITMAP
00
00
00
00
00
42
42
42
7E
42
42
42
00
00
00
ENDCHAR
STARTCHAR uni029D
ENCODING 669
SWIDTH 512 0
DWIDTH 8 0
BBX 8 15 0 -3
BITMAP
00
00
08
08
00
18
08
08
08
08
3C
4A
48
30
00
ENDCHAR
STARTCHAR uni029E
ENCODING 670
SWIDTH 512 0
DWIDTH 8 0
BBX 8 15 0 -3
BITMAP
00
00
00
00
00
42
22
12
0E
0A
12
22
02
02
00
ENDCHAR
STARTCHAR uni029F
ENCODING 671
SWIDTH 512 0
DWIDTH 8 0
BBX 8 15 0 -3
BITMAP
00
00
00
00
00
40
40
40
40
40
40
7E
00
00
00
ENDCHAR
STARTCHAR uni02A0
ENCODING 672
SWIDTH 512 0
DWIDTH 8 0
BBX 8 15 0 -3
BITMAP
00
00
00
03
04
34
4C
44
44
44
4C
34
04
04
00
ENDCHAR
STARTCHAR uni02A1
ENCODING 673
SWIDTH 512 0
DWIDTH 8 0
BBX 8 15 0 -3
BITMAP
00
00
1C
22
22
04
08
08
3E
08
08
08
00
00
00
ENDCHAR
STARTCHAR uni02A2
ENCODING 674
SWIDTH 512 0
DWIDTH 8 0
BBX 8 15 0 -3
BITMAP
00
00
1C
22
22
10
08
08
3E
08
08
08
00
00
00
ENDCHAR
STARTCHAR uni02A3
ENCODING 675
SWIDTH 512 0
DWIDTH 8 0
BBX 8 15 0 -3
BITMAP
00
00
10
10
10
3E
52
54
54
54
58
3E
00
00
00
ENDCHAR
STARTCHAR uni02A4
ENCODING 676
SWIDTH 512 0
DWIDTH 8 0
BBX 8 15 0 -3
BITMAP
00
00
10
10
10
3E
52
54
5C
52
52
32
0C
00
00
ENDCHAR
STARTCHAR uni02A5
ENCODING 677
SWIDTH 512 0
DWIDTH 8 0
BBX 8 15 0 -3
BITMAP
00
00
10
10
10
3E
52
54
54
58
5E
3E
08
10
00
ENDCHAR
STARTCHAR uni02A6
ENCODING 678
SWIDTH 512 0
DWIDTH 8 0
BBX 8 15 0 -3
BITMAP
00
00
20
20
20
76
28
28
24
22
22
1C
00
00
00
ENDCHAR
STARTCHAR uni02A7
ENCODING 679
SWIDTH 512 0
DWIDTH 8 0
BBX 8 15 0 -3
BITMAP
02
05
24
24
24
74
24
24
24
24
24
1C
14
08
00
ENDCHAR
STARTCHAR uni02A8
ENCODING 680
SWIDTH 512 0
DWIDTH 8 0
BBX 8 15 0 -3
BITMAP
00
00
20
20
20
76
28
28
28
28
2A
16
04
00
00
ENDCHAR
STARTCHAR uni02A9
ENCODING 681
SWIDTH 512 0
DWIDTH 8 0
BBX 8 15 0 -3
BITMAP
00
00
18
24
20
20
7A
2D
29
29
29
29
01
06
00
ENDCHAR
STARTCHAR uni02AA
ENCODING 682
SWIDTH 512 0
DWIDTH 8 0
BBX 8 15 0 -3
BITMAP
00
00
60
20
20
2E
31
30
2E
21
31
7E
00
00
00
ENDCHAR
STARTCHAR uni02AB
ENCODING 683
SWIDTH 512 0
DWIDTH 8 0
BBX 8 15 0 -3
BITMAP
00
00
60
20
20
3F
21
22
24
28
30
7F
00
00
00
ENDCHAR
STARTCHAR uni02AC
ENCODING 684
SWIDTH 512 0
DWIDTH 8 0
BBX 8 15 0 -3
BITMAP
00
00
00
2A
2A
14
14
00
2A
2A
14
14
00
00
00
ENDCHAR
STARTCHAR uni02AD
ENCODING 685
SWIDTH 512 0
DWIDTH 8 0
BBX 8 15 0 -3
BITMAP
00
00
00
00
3E
22
22
00
3E
22
22
00
00
00
00
ENDCHAR
STARTCHAR uni02B0
ENCODING 688
SWIDTH 512 0
DWIDTH 8 0
BBX 8 15 0 -3
BITMAP
00
20
20
30
28
28
00
00
00
00
00
00
00
00
00
ENDCHAR
STARTCHAR uni02B1
ENCODING 689
SWIDTH 512 0
DWIDTH 8 0
BBX 8 15 0 -3
BITMAP
00
10
20
30
28
28
00
00
00
00
00
00
00
00
00
ENDCHAR
STARTCHAR uni02B2
ENCODING 690
SWIDTH 512 0
DWIDTH 8 0
BBX 8 15 0 -3
BITMAP
00
08
00
08
08
08
28
10
00
00
00
00
00
00
00
ENDCHAR
STARTCHAR uni02B3
ENCODING 691
SWIDTH 512 0
DWIDTH 8 0
BBX 8 15 0 -3
BITMAP
00
00
30
28
20
20
00
00
00
00
00
00
00
00
00
ENDCHAR
STARTCHAR uni02B4
ENCODING 692
SWIDTH 512 0
DWIDTH 8 0
BBX 8 15 0 -3
BITMAP
00
00
08
08
28
18
00
00
00
00
00
00
00
00
00
ENDCHAR
STARTCHAR uni02B5
ENCODING 693
SWIDTH 512 0
DWIDTH 8 0
BBX 8 15 0 -3
BITMAP
00
00
08
08
28
18
0C
00
00
00
00
00
00
00
00
ENDCHAR
STARTCHAR uni02B6
ENCODING 694
SWIDTH 512 0
DWIDTH 8 0
BBX 8 15 0 -3
BITMAP
00
00
28
30
28
30
00
00
00
00
00
00
00
00
00
ENDCHAR
STARTCHAR uni02B7
ENCODING 695
SWIDTH 512 0
DWIDTH 8 0
BBX 8 15 0 -3
BITMAP
00
00
2A
2A
14
14
00
00
00
00
00
00
00
00
00
ENDCHAR
STARTCHAR uni02B8
ENCODING 696
SWIDTH 512 0
DWIDTH 8 0
BBX 8 15 0 -3
BITMAP
00
00
28
28
10
10
20
00
00
00
00
00
00
00
00
ENDCHAR
STARTCHAR uni02B9
ENCODING 697
SWIDTH 512 0
DWIDTH 8 0
BBX 8 15 0 -3
BITMAP
00
10
10
20
20
00
00
00
00
00
00
00
00
00
00
ENDCHAR
STARTCHAR uni02BA
ENCODING 698
SWIDTH 512 0
DWIDTH 8 0
BBX 8 15 0 -3
BITMAP
00
12
12
24
24
00
00
00
00
00
00
00
00
00
00
ENDCHAR
STARTCHAR uni02BB
ENCODING 699
SWIDTH 512 0
DWIDTH 8 0
BBX 8 15 0 -3
BITMAP
00
08
10
10
18
00
00
00
00
00
00
00
00
00
00
ENDCHAR
STARTCHAR afii57929
ENCODING 700
SWIDTH 512 0
DWIDTH 8 0
BBX 8 15 0 -3
BITMAP
00
18
08
08
10
00
00
00
00
00
00
00
00
00
00
ENDCHAR
STARTCHAR afii64937
ENCODING 701
SWIDTH 512 0
DWIDTH 8 0
BBX 8 15 0 -3
BITMAP
00
18
10
10
08
00
00
00
00
00
00
00
00
00
00
ENDCHAR
STARTCHAR uni02BE
ENCODING 702
SWIDTH 512 0
DWIDTH 8 0
BBX 8 15 0 -3
BITMAP
00
10
08
08
10
00
00
00
00
00
00
00
00
00
00
ENDCHAR
STARTCHAR uni02BF
ENCODING 703
SWIDTH 512 0
DWIDTH 8 0
BBX 8 15 0 -3
BITMAP
00
08
10
10
08
00
00
00
00
00
00
00
00
00
00
ENDCHAR
STARTCHAR uni02C0
ENCODING 704
SWIDTH 512 0
DWIDTH 8 0
BBX 8 15 0 -3
BITMAP
00
30
08
10
10
10
00
00
00
00
00
00
00
00
00
ENDCHAR
STARTCHAR uni02C1
ENCODING 705
SWIDTH 512 0
DWIDTH 8 0
BBX 8 15 0 -3
BITMAP
00
18
20
10
10
10
00
00
00
00
00
00
00
00
00
ENDCHAR
STARTCHAR uni02C2
ENCODING 706
SWIDTH 512 0
DWIDTH 8 0
BBX 8 15 0 -3
BITMAP
00
0C
30
0C
00
00
00
00
00
00
00
00
00
00
00
ENDCHAR
STARTCHAR uni02C3
ENCODING 707
SWIDTH 512 0
DWIDTH 8 0
BBX 8 15 0 -3
BITMAP
00
30
0C
30
00
00
00
00
00
00
00
00
00
00
00
ENDCHAR
STARTCHAR uni02C4
ENCODING 708
SWIDTH 512 0
DWIDTH 8 0
BBX 8 15 0 -3
BITMAP
00
08
14
22
00
00
00
00
00
00
00
00
00
00
00
ENDCHAR
STARTCHAR uni02C5
ENCODING 709
SWIDTH 512 0
DWIDTH 8 0
BBX 8 15 0 -3
BITMAP
00
22
14
08
00
00
00
00
00
00
00
00
00
00
00
ENDCHAR
STARTCHAR circumflex
ENCODING 710
SWIDTH 512 0
DWIDTH 8 0
BBX 8 15 0 -3
BITMAP
00
08
14
00
00
00
00
00
00
00
00
00
00
00
00
ENDCHAR
STARTCHAR caron
ENCODING 711
SWIDTH 512 0
DWIDTH 8 0
BBX 8 15 0 -3
BITMAP
00
14
08
00
00
00
00
00
00
00
00
00
00
00
00
ENDCHAR
STARTCHAR uni02C8
ENCODING 712
SWIDTH 512 0
DWIDTH 8 0
BBX 8 15 0 -3
BITMAP
00
08
08
08
00
00
00
00
00
00
00
00
00
00
00
ENDCHAR
STARTCHAR macron
ENCODING 713
SWIDTH 512 0
DWIDTH 8 0
BBX 8 15 0 -3
BITMAP
00
3E
00
00
00
00
00
00
00
00
00
00
00
00
00
ENDCHAR
STARTCHAR uni02CA
ENCODING 714
SWIDTH 512 0
DWIDTH 8 0
BBX 8 15 0 -3
BITMAP
00
08
10
00
00
00
00
00
00
00
00
00
00
00
00
ENDCHAR
STARTCHAR uni02CB
ENCODING 715
SWIDTH 512 0
DWIDTH 8 0
BBX 8 15 0 -3
BITMAP
00
10
08
00
00
00
00
00
00
00
00
00
00
00
00
ENDCHAR
STARTCHAR uni02CC
ENCODING 716
SWIDTH 512 0
DWIDTH 8 0
BBX 8 15 0 -3
BITMAP
00
00
00
00
00
00
00
00
00
00
08
08
08
00
00
ENDCHAR
STARTCHAR uni02CD
ENCODING 717
SWIDTH 512 0
DWIDTH 8 0
BBX 8 15 0 -3
BITMAP
00
00
00
00
00
00
00
00
00
00
00
00
3E
00
00
ENDCHAR
STARTCHAR uni02CE
ENCODING 718
SWIDTH 512 0
DWIDTH 8 0
BBX 8 15 0 -3
BITMAP
00
00
00
00
00
00
00
00
00
00
00
10
08
00
00
ENDCHAR
STARTCHAR uni02CF
ENCODING 719
SWIDTH 512 0
DWIDTH 8 0
BBX 8 15 0 -3
BITMAP
00
00
00
00
00
00
00
00
00
00
00
08
10
00
00
ENDCHAR
STARTCHAR uni02D0
ENCODING 720
SWIDTH 512 0
DWIDTH 8 0
BBX 8 15 0 -3
BITMAP
00
00
00
00
00
1C
08
00
00
00
08
1C
00
00
00
ENDCHAR
STARTCHAR uni02D1
ENCODING 721
SWIDTH 512 0
DWIDTH 8 0
BBX 8 15 0 -3
BITMAP
00
00
00
00
00
1C
08
00
00
00
00
00
00
00
00
ENDCHAR
STARTCHAR uni02D2
ENCODING 722
SWIDTH 512 0
DWIDTH 8 0
BBX 8 15 0 -3
BITMAP
00
00
00
00
00
00
10
08
08
10
00
00
00
00
00
ENDCHAR
STARTCHAR uni02D3
ENCODING 723
SWIDTH 512 0
DWIDTH 8 0
BBX 8 15 0 -3
BITMAP
00
00
00
00
00
00
08
10
10
08
00
00
00
00
00
ENDCHAR
STARTCHAR uni02D4
ENCODING 724
SWIDTH 512 0
DWIDTH 8 0
BBX 8 15 0 -3
BITMAP
08
1C
00
00
00
00
00
00
00
00
00
00
00
00
00
ENDCHAR
STARTCHAR uni02D5
ENCODING 725
SWIDTH 512 0
DWIDTH 8 0
BBX 8 15 0 -3
BITMAP
00
1C
08
00
00
00
00
00
00
00
00
00
00
00
00
ENDCHAR
STARTCHAR uni02D6
ENCODING 726
SWIDTH 512 0
DWIDTH 8 0
BBX 8 15 0 -3
BITMAP
08
1C
08
00
00
00
00
00
00
00
00
00
00
00
00
ENDCHAR
STARTCHAR uni02D7
ENCODING 727
SWIDTH 512 0
DWIDTH 8 0
BBX 8 15 0 -3
BITMAP
00
1C
00
00
00
00
00
00
00
00
00
00
00
00
00
ENDCHAR
STARTCHAR breve
ENCODING 728
SWIDTH 512 0
DWIDTH 8 0
BBX 8 15 0 -3
BITMAP
00
22
1C
00
00
00
00
00
00
00
00
00
00
00
00
ENDCHAR
STARTCHAR dotaccent
ENCODING 729
SWIDTH 512 0
DWIDTH 8 0
BBX 8 15 0 -3
BITMAP
00
08
00
00
00
00
00
00
00
00
00
00
00
00
00
ENDCHAR
STARTCHAR ring
ENCODING 730
SWIDTH 512 0
DWIDTH 8 0
BBX 8 15 0 -3
BITMAP
08
14
08
00
00
00
00
00
00
00
00
00
00
00
00
ENDCHAR
STARTCHAR ogonek
ENCODING 731
SWIDTH 512 0
DWIDTH 8 0
BBX 8 15 0 -3
BITMAP
00
00
00
00
00
00
00
00
00
00
00
00
10
18
00
ENDCHAR
STARTCHAR tilde
ENCODING 732
SWIDTH 512 0
DWIDTH 8 0
BBX 8 15 0 -3
BITMAP
00
14
28
00
00
00
00
00
00
00
00
00
00
00
00
ENDCHAR
STARTCHAR hungarumlaut
ENCODING 733
SWIDTH 512 0
DWIDTH 8 0
BBX 8 15 0 -3
BITMAP
00
12
24
00
00
00
00
00
00
00
00
00
00
00
00
ENDCHAR
STARTCHAR uni02DE
ENCODING 734
SWIDTH 512 0
DWIDTH 8 0
BBX 8 15 0 -3
BITMAP
00
00
00
00
00
20
60
18
00
00
00
00
00
00
00
ENDCHAR
STARTCHAR uni02DF
ENCODING 735
SWIDTH 512 0
DWIDTH 8 0
BBX 8 15 0 -3
BITMAP
00
22
14
08
08
14
22
00
00
00
00
00
00
00
00
ENDCHAR
STARTCHAR uni02E0
ENCODING 736
SWIDTH 512 0
DWIDTH 8 0
BBX 8 15 0 -3
BITMAP
00
00
28
28
10
18
00
00
00
00
00
00
00
00
00
ENDCHAR
STARTCHAR uni02E1
ENCODING 737
SWIDTH 512 0
DWIDTH 8 0
BBX 8 15 0 -3
BITMAP
00
00
10
10
10
08
00
00
00
00
00
00
00
00
00
ENDCHAR
STARTCHAR uni02E2
ENCODING 738
SWIDTH 512 0
DWIDTH 8 0
BBX 8 15 0 -3
BITMAP
00
00
10
20
10
20
00
00
00
00
00
00
00
00
00
ENDCHAR
STARTCHAR uni02E3
ENCODING 739
SWIDTH 512 0
DWIDTH 8 0
BBX 8 15 0 -3
BITMAP
00
00
28
10
28
28
00
00
00
00
00
00
00
00
00
ENDCHAR
STARTCHAR uni02E4
ENCODING 740
SWIDTH 512 0
DWIDTH 8 0
BBX 8 15 0 -3
BITMAP
00
10
20
10
10
00
00
00
00
00
00
00
00
00
00
ENDCHAR
STARTCHAR uni02E5
ENCODING 741
SWIDTH 512 0
DWIDTH 8 0
BBX 8 15 0 -3
BITMAP
00
00
00
38
08
08
08
08
08
08
08
08
00
00
00
ENDCHAR
STARTCHAR uni02E6
ENCODING 742
SWIDTH 512 0
DWIDTH 8 0
BBX 8 15 0 -3
BITMAP
00
00
00
08
08
38
08
08
08
08
08
08
00
00
00
ENDCHAR
STARTCHAR uni02E7
ENCODING 743
SWIDTH 512 0
DWIDTH 8 0
BBX 8 15 0 -3
BITMAP
00
00
00
08
08
08
08
38
08
08
08
08
00
00
00
ENDCHAR
STARTCHAR uni02E8
ENCODING 744
SWIDTH 512 0
DWIDTH 8 0
BBX 8 15 0 -3
BITMAP
00
00
00
08
08
08
08
08
08
38
08
08
00
00
00
ENDCHAR
STARTCHAR uni02E9
ENCODING 745
SWIDTH 512 0
DWIDTH 8 0
BBX 8 15 0 -3
BITMAP
00
00
00
08
08
08
08
08
08
08
08
38
00
00
00
ENDCHAR
STARTCHAR uni02EA
ENCODING 746
SWIDTH 512 0
DWIDTH 8 0
BBX 8 15 0 -3
BITMAP
00
00
00
00
00
00
40
40
40
40
40
78
00
00
00
ENDCHAR
STARTCHAR uni02EB
ENCODING 747
SWIDTH 512 0
DWIDTH 8 0
BBX 8 15 0 -3
BITMAP
00
00
00
00
00
40
40
40
78
40
40
40
00
00
00
ENDCHAR
STARTCHAR uni02EC
ENCODING 748
SWIDTH 512 0
DWIDTH 8 0
BBX 8 15 0 -3
BITMAP
00
00
00
00
00
00
00
00
00
00
00
00
14
08
00
ENDCHAR
STARTCHAR uni02ED
ENCODING 749
SWIDTH 512 0
DWIDTH 8 0
BBX 8 15 0 -3
BITMAP
00
00
3E
00
3E
00
00
00
00
00
00
00
00
00
00
ENDCHAR
STARTCHAR uni02EE
ENCODING 750
SWIDTH 512 0
DWIDTH 8 0
BBX 8 15 0 -3
BITMAP
00
00
36
12
24
00
00
00
00
00
00
00
00
00
00
ENDCHAR
STARTCHAR gravecomb
ENCODING 768
SWIDTH 512 0
DWIDTH 8 0
BBX 8 15 0 -3
BITMAP
10
08
00
00
00
00
00
00
00
00
00
00
00
00
00
ENDCHAR
STARTCHAR acutecomb
ENCODING 769
SWIDTH 512 0
DWIDTH 8 0
BBX 8 15 0 -3
BITMAP
08
10
00
00
00
00
00
00
00
00
00
00
00
00
00
ENDCHAR
STARTCHAR uni0302
ENCODING 770
SWIDTH 512 0
DWIDTH 8 0
BBX 8 15 0 -3
BITMAP
18
24
00
00
00
00
00
00
00
00
00
00
00
00
00
ENDCHAR
STARTCHAR tildecomb
ENCODING 771
SWIDTH 512 0
DWIDTH 8 0
BBX 8 15 0 -3
BITMAP
14
28
00
00
00
00
00
00
00
00
00
00
00
00
00
ENDCHAR
STARTCHAR uni0304
ENCODING 772
SWIDTH 512 0
DWIDTH 8 0
BBX 8 15 0 -3
BITMAP
00
3C
00
00
00
00
00
00
00
00
00
00
00
00
00
ENDCHAR
STARTCHAR uni0305
ENCODING 773
SWIDTH 512 0
DWIDTH 8 0
BBX 8 15 0 -3
BITMAP
00
7E
00
00
00
00
00
00
00
00
00
00
00
00
00
ENDCHAR
STARTCHAR uni0306
ENCODING 774
SWIDTH 512 0
DWIDTH 8 0
BBX 8 15 0 -3
BITMAP
42
3C
00
00
00
00
00
00
00
00
00
00
00
00
00
ENDCHAR
STARTCHAR uni0307
ENCODING 775
SWIDTH 512 0
DWIDTH 8 0
BBX 8 15 0 -3
BITMAP
08
00
00
00
00
00
00
00
00
00
00
00
00
00
00
ENDCHAR
STARTCHAR uni0308
ENCODING 776
SWIDTH 512 0
DWIDTH 8 0
BBX 8 15 0 -3
BITMAP
00
24
00
00
00
00
00
00
00
00
00
00
00
00
00
ENDCHAR
STARTCHAR hookabovecomb
ENCODING 777
SWIDTH 512 0
DWIDTH 8 0
BBX 8 15 0 -3
BITMAP
18
24
08
00
00
00
00
00
00
00
00
00
00
00
00
ENDCHAR
STARTCHAR uni030A
ENCODING 778
SWIDTH 512 0
DWIDTH 8 0
BBX 8 15 0 -3
BITMAP
18
24
18
00
00
00
00
00
00
00
00
00
00
00
00
ENDCHAR
STARTCHAR uni030B
ENCODING 779
SWIDTH 512 0
DWIDTH 8 0
BBX 8 15 0 -3
BITMAP
12
24
00
00
00
00
00
00
00
00
00
00
00
00
00
ENDCHAR
STARTCHAR uni030C
ENCODING 780
SWIDTH 512 0
DWIDTH 8 0
BBX 8 15 0 -3
BITMAP
24
18
00
00
00
00
00
00
00
00
00
00
00
00
00
ENDCHAR
STARTCHAR uni030D
ENCODING 781
SWIDTH 512 0
DWIDTH 8 0
BBX 8 15 0 -3
BITMAP
08
08
00
00
00
00
00
00
00
00
00
00
00
00
00
ENDCHAR
STARTCHAR uni030E
ENCODING 782
SWIDTH 512 0
DWIDTH 8 0
BBX 8 15 0 -3
BITMAP
14
14
00
00
00
00
00
00
00
00
00
00
00
00
00
ENDCHAR
STARTCHAR uni030F
ENCODING 783
SWIDTH 512 0
DWIDTH 8 0
BBX 8 15 0 -3
BITMAP
24
12
00
00
00
00
00
00
00
00
00
00
00
00
00
ENDCHAR
STARTCHAR uni0310
ENCODING 784
SWIDTH 512 0
DWIDTH 8 0
BBX 8 15 0 -3
BITMAP
18
42
3C
00
00
00
00
00
00
00
00
00
00
00
00
ENDCHAR
STARTCHAR uni0311
ENCODING 785
SWIDTH 512 0
DWIDTH 8 0
BBX 8 15 0 -3
BITMAP
3C
42
00
00
00
00
00
00
00
00
00
00
00
00
00
ENDCHAR
STARTCHAR uni0312
ENCODING 786
SWIDTH 512 0
DWIDTH 8 0
BBX 8 15 0 -3
BITMAP
00
08
10
18
00
00
00
00
00
00
00
00
00
00
00
ENDCHAR
STARTCHAR uni0313
ENCODING 787
SWIDTH 512 0
DWIDTH 8 0
BBX 8 15 0 -3
BITMAP
00
18
08
10
00
00
00
00
00
00
00
00
00
00
00
ENDCHAR
STARTCHAR uni0314
ENCODING 788
SWIDTH 512 0
DWIDTH 8 0
BBX 8 15 0 -3
BITMAP
00
18
10
08
00
00
00
00
00
00
00
00
00
00
00
ENDCHAR
STARTCHAR uni0315
ENCODING 789
SWIDTH 512 0
DWIDTH 8 0
BBX 8 15 0 -3
BITMAP
00
03
01
02
00
00
00
00
00
00
00
00
00
00
00
ENDCHAR
STARTCHAR uni0316
ENCODING 790
SWIDTH 512 0
DWIDTH 8 0
BBX 8 15 0 -3
BITMAP
00
00
00
00
00
00
00
00
00
00
00
00
18
0C
00
ENDCHAR
STARTCHAR uni0317
ENCODING 791
SWIDTH 512 0
DWIDTH 8 0
BBX 8 15 0 -3
BITMAP
00
00
00
00
00
00
00
00
00
00
00
00
03
06
00
ENDCHAR
STARTCHAR uni0318
ENCODING 792
SWIDTH 512 0
DWIDTH 8 0
BBX 8 15 0 -3
BITMAP
00
00
00
00
00
00
00
00
00
00
00
02
0E
02
00
ENDCHAR
STARTCHAR uni0319
ENCODING 793
SWIDTH 512 0
DWIDTH 8 0
BBX 8 15 0 -3
BITMAP
00
00
00
00
00
00
00
00
00
00
00
10
1C
10
00
ENDCHAR
STARTCHAR uni031A
ENCODING 794
SWIDTH 512 0
DWIDTH 8 0
BBX 8 15 0 -3
BITMAP
00
1E
02
02
00
00
00
00
00
00
00
00
00
00
00
ENDCHAR
STARTCHAR uni031B
ENCODING 795
SWIDTH 512 0
DWIDTH 8 0
BBX 8 15 0 -3
BITMAP
00
00
00
03
01
02
00
00
00
00
00
00
00
00
00
ENDCHAR
STARTCHAR uni031C
ENCODING 796
SWIDTH 512 0
DWIDTH 8 0
BBX 8 15 0 -3
BITMAP
00
00
00
00
00
00
00
00
00
00
00
04
08
04
00
ENDCHAR
STARTCHAR uni031D
ENCODING 797
SWIDTH 512 0
DWIDTH 8 0
BBX 8 15 0 -3
BITMAP
00
00
00
00
00
00
00
00
00
00
00
04
04
1F
00
ENDCHAR
STARTCHAR uni031E
ENCODING 798
SWIDTH 512 0
DWIDTH 8 0
BBX 8 15 0 -3
BITMAP
00
00
00
00
00
00
00
00
00
00
00
1F
04
04
00
ENDCHAR
STARTCHAR uni031F
ENCODING 799
SWIDTH 512 0
DWIDTH 8 0
BBX 8 15 0 -3
BITMAP
00
00
00
00
00
00
00
00
00
00
00
04
0E
04
00
ENDCHAR
STARTCHAR uni0320
ENCODING 800
SWIDTH 512 0
DWIDTH 8 0
BBX 8 15 0 -3
BITMAP
00
00
00
00
00
00
00
00
00
00
00
00
1E
00
00
ENDCHAR
STARTCHAR uni0321
ENCODING 801
SWIDTH 512 0
DWIDTH 8 0
BBX 8 15 0 -3
BITMAP
00
00
00
00
00
00
00
00
02
02
02
0A
04
00
00
ENDCHAR
STARTCHAR uni0322
ENCODING 802
SWIDTH 512 0
DWIDTH 8 0
BBX 8 15 0 -3
BITMAP
00
00
00
00
00
00
00
00
02
02
02
02
01
00
00
ENDCHAR
STARTCHAR dotbelowcomb
ENCODING 803
SWIDTH 512 0
DWIDTH 8 0
BBX 8 15 0 -3
BITMAP
00
00
00
00
00
00
00
00
00
00
00
00
00
08
00
ENDCHAR
STARTCHAR uni0324
ENCODING 804
SWIDTH 512 0
DWIDTH 8 0
BBX 8 15 0 -3
BITMAP
00
00
00
00
00
00
00
00
00
00
00
00
00
24
00
ENDCHAR
STARTCHAR uni0325
ENCODING 805
SWIDTH 512 0
DWIDTH 8 0
BBX 8 15 0 -3
BITMAP
00
00
00
00
00
00
00
00
00
00
00
0C
12
0C
00
ENDCHAR
STARTCHAR uni0326
ENCODING 806
SWIDTH 512 0
DWIDTH 8 0
BBX 8 15 0 -3
BITMAP
00
00
00
00
00
00
00
00
00
00
00
0C
04
08
00
ENDCHAR
STARTCHAR uni0327
ENCODING 807
SWIDTH 512 0
DWIDTH 8 0
BBX 8 15 0 -3
BITMAP
00
00
00
00
00
00
00
00
00
00
08
0C
04
08
00
ENDCHAR
STARTCHAR uni0328
ENCODING 808
SWIDTH 512 0
DWIDTH 8 0
BBX 8 15 0 -3
BITMAP
00
00
00
00
00
00
00
00
00
00
00
08
10
1C
00
ENDCHAR
STARTCHAR uni0329
ENCODING 809
SWIDTH 512 0
DWIDTH 8 0
BBX 8 15 0 -3
BITMAP
00
00
00
00
00
00
00
00
00
00
00
04
04
04
00
ENDCHAR
STARTCHAR uni032A
ENCODING 810
SWIDTH 512 0
DWIDTH 8 0
BBX 8 15 0 -3
BITMAP
00
00
00
00
00
00
00
00
00
00
00
00
1E
12
00
ENDCHAR
STARTCHAR uni032B
ENCODING 811
SWIDTH 512 0
DWIDTH 8 0
BBX 8 15 0 -3
BITMAP
00
00
00
00
00
00
00
00
00
00
00
00
2D
12
00
ENDCHAR
STARTCHAR uni032C
ENCODING 812
SWIDTH 512 0
DWIDTH 8 0
BBX 8 15 0 -3
BITMAP
00
00
00
00
00
00
00
00
00
00
00
12
04
08
00
ENDCHAR
STARTCHAR uni032D
ENCODING 813
SWIDTH 512 0
DWIDTH 8 0
BBX 8 15 0 -3
BITMAP
00
00
00
00
00
00
00
00
00
00
00
08
04
12
00
ENDCHAR
STARTCHAR uni032E
ENCODING 814
SWIDTH 512 0
DWIDTH 8 0
BBX 8 15 0 -3
BITMAP
00
00
00
00
00
00
00
00
00
00
00
00
12
0C
00
ENDCHAR
STARTCHAR uni032F
ENCODING 815
SWIDTH 512 0
DWIDTH 8 0
BBX 8 15 0 -3
BITMAP
00
00
00
00
00
00
00
00
00
00
00
00
0C
12
00
ENDCHAR
STARTCHAR uni0330
ENCODING 816
SWIDTH 512 0
DWIDTH 8 0
BBX 8 15 0 -3
BITMAP
00
00
00
00
00
00
00
00
00
00
00
00
19
26
00
ENDCHAR
STARTCHAR uni0331
ENCODING 817
SWIDTH 512 0
DWIDTH 8 0
BBX 8 15 0 -3
BITMAP
00
00
00
00
00
00
00
00
00
00
00
00
1E
00
00
ENDCHAR
STARTCHAR uni0332
ENCODING 818
SWIDTH 512 0
DWIDTH 8 0
BBX 8 15 0 -3
BITMAP
00
00
00
00
00
00
00
00
00
00
00
00
3F
00
00
ENDCHAR
STARTCHAR uni0333
ENCODING 819
SWIDTH 512 0
DWIDTH 8 0
BBX 8 15 0 -3
BITMAP
00
00
00
00
00
00
00
00
00
00
00
3F
00
3F
00
ENDCHAR
STARTCHAR uni0334
ENCODING 820
SWIDTH 512 0
DWIDTH 8 0
BBX 8 15 0 -3
BITMAP
00
00
00
00
00
19
26
00
00
00
00
00
00
00
00
ENDCHAR
STARTCHAR uni0335
ENCODING 821
SWIDTH 512 0
DWIDTH 8 0
BBX 8 15 0 -3
BITMAP
00
00
00
00
00
00
1E
00
00
00
00
00
00
00
00
ENDCHAR
STARTCHAR uni0336
ENCODING 822
SWIDTH 512 0
DWIDTH 8 0
BBX 8 15 0 -3
BITMAP
00
00
00
00
00
00
3F
00
00
00
00
00
00
00
00
ENDCHAR
STARTCHAR uni0337
ENCODING 823
SWIDTH 512 0
DWIDTH 8 0
BBX 8 15 0 -3
BITMAP
00
00
00
02
04
04
08
08
10
10
00
00
00
00
00
ENDCHAR
STARTCHAR uni0338
ENCODING 824
SWIDTH 512 0
DWIDTH 8 0
BBX 8 15 0 -3
BITMAP
02
02
04
04
08
08
08
10
10
10
20
20
40
40
00
ENDCHAR
STARTCHAR uni0339
ENCODING 825
SWIDTH 512 0
DWIDTH 8 0
BBX 8 15 0 -3
BITMAP
00
00
00
00
00
00
00
00
00
00
00
08
04
08
00
ENDCHAR
STARTCHAR uni033A
ENCODING 826
SWIDTH 512 0
DWIDTH 8 0
BBX 8 15 0 -3
BITMAP
00
00
00
00
00
00
00
00
00
00
00
00
12
1E
00
ENDCHAR
STARTCHAR uni033B
ENCODING 827
SWIDTH 512 0
DWIDTH 8 0
BBX 8 15 0 -3
BITMAP
00
00
00
00
00
00
00
00
00
00
00
1C
14
1C
00
ENDCHAR
STARTCHAR uni033C
ENCODING 828
SWIDTH 512 0
DWIDTH 8 0
BBX 8 15 0 -3
BITMAP
00
00
00
00
00
00
00
00
00
00
00
00
3B
0C
00
ENDCHAR
STARTCHAR uni033D
ENCODING 829
SWIDTH 512 0
DWIDTH 8 0
BBX 8 15 0 -3
BITMAP
12
0C
12
00
00
00
00
00
00
00
00
00
00
00
00
ENDCHAR
STARTCHAR uni033E
ENCODING 830
SWIDTH 512 0
DWIDTH 8 0
BBX 8 15 0 -3
BITMAP
04
08
04
08
00
00
00
00
00
00
00
00
00
00
00
ENDCHAR
STARTCHAR uni033F
ENCODING 831
SWIDTH 512 0
DWIDTH 8 0
BBX 8 15 0 -3
BITMAP
3F
00
3F
00
00
00
00
00
00
00
00
00
00
00
00
ENDCHAR
STARTCHAR uni0340
ENCODING 832
SWIDTH 512 0
DWIDTH 8 0
BBX 8 15 0 -3
BITMAP
10
08
00
00
00
00
00
00
00
00
00
00
00
00
00
ENDCHAR
STARTCHAR uni0341
ENCODING 833
SWIDTH 512 0
DWIDTH 8 0
BBX 8 15 0 -3
BITMAP
08
10
00
00
00
00
00
00
00
00
00
00
00
00
00
ENDCHAR
STARTCHAR uni0342
ENCODING 834
SWIDTH 512 0
DWIDTH 8 0
BBX 8 15 0 -3
BITMAP
19
26
00
00
00
00
00
00
00
00
00
00
00
00
00
ENDCHAR
STARTCHAR uni0343
ENCODING 835
SWIDTH 512 0
DWIDTH 8 0
BBX 8 15 0 -3
BITMAP
06
02
04
00
00
00
00
00
00
00
00
00
00
00
00
ENDCHAR
STARTCHAR uni0344
ENCODING 836
SWIDTH 512 0
DWIDTH 8 0
BBX 8 15 0 -3
BITMAP
04
04
29
00
00
00
00
00
00
00
00
00
00
00
00
ENDCHAR
STARTCHAR uni0345
ENCODING 837
SWIDTH 512 0
DWIDTH 8 0
BBX 8 15 0 -3
BITMAP
00
00
00
00
00
00
00
00
00
00
00
08
0A
04
00
ENDCHAR
STARTCHAR uni0346
ENCODING 838
SWIDTH 512 0
DWIDTH 8 0
BBX 8 15 0 -3
BITMAP
1E
12
00
00
00
00
00
00
00
00
00
00
00
00
00
ENDCHAR
STARTCHAR uni0347
ENCODING 839
SWIDTH 512 0
DWIDTH 8 0
BBX 8 15 0 -3
BITMAP
00
00
00
00
00
00
00
00
00
00
00
1E
00
1E
00
ENDCHAR
STARTCHAR uni0348
ENCODING 840
SWIDTH 512 0
DWIDTH 8 0
BBX 8 15 0 -3
BITMAP
00
00
00
00
00
00
00
00
00
00
00
12
12
12
00
ENDCHAR
STARTCHAR uni0349
ENCODING 841
SWIDTH 512 0
DWIDTH 8 0
BBX 8 15 0 -3
BITMAP
00
00
00
00
00
00
00
00
00
00
00
0E
02
02
00
ENDCHAR
STARTCHAR uni034A
ENCODING 842
SWIDTH 512 0
DWIDTH 8 0
BBX 8 15 0 -3
BITMAP
15
2E
08
00
00
00
00
00
00
00
00
00
00
00
00
ENDCHAR
STARTCHAR uni034B
ENCODING 843
SWIDTH 512 0
DWIDTH 8 0
BBX 8 15 0 -3
BITMAP
09
3E
48
00
00
00
00
00
00
00
00
00
00
00
00
ENDCHAR
STARTCHAR uni034C
ENCODING 844
SWIDTH 512 0
DWIDTH 8 0
BBX 8 15 0 -3
BITMAP
19
26
19
26
00
00
00
00
00
00
00
00
00
00
00
ENDCHAR
STARTCHAR uni034D
ENCODING 845
SWIDTH 512 0
DWIDTH 8 0
BBX 8 15 0 -3
BITMAP
00
00
00
00
00
00
00
00
00
00
00
12
3F
12
00
ENDCHAR
STARTCHAR uni034E
ENCODING 846
SWIDTH 512 0
DWIDTH 8 0
BBX 8 15 0 -3
BITMAP
00
00
00
00
00
00
00
00
00
00
04
0E
04
04
00
ENDCHAR
STARTCHAR uni0360
ENCODING 864
SWIDTH 512 0
DWIDTH 8 0
BBX 8 15 0 -3
BITMAP
00
07
09
00
00
00
00
00
00
00
00
00
00
00
00
ENDCHAR
STARTCHAR uni0361
ENCODING 865
SWIDTH 512 0
DWIDTH 8 0
BBX 8 15 0 -3
BITMAP
00
00
0F
11
00
00
00
00
00
00
00
00
00
00
00
ENDCHAR
STARTCHAR uni0362
ENCODING 866
SWIDTH 512 0
DWIDTH 8 0
BBX 8 15 0 -3
BITMAP
00
00
00
00
00
00
00
00
00
00
00
02
1F
02
00
ENDCHAR
STARTCHAR uni0363
ENCODING 867
SWIDTH 512 0
DWIDTH 8 0
BBX 8 15 0 -3
BITMAP
06
0A
06
0A
0E
00
00
00
00
00
00
00
00
00
00
ENDCHAR
STARTCHAR uni0364
ENCODING 868
SWIDTH 512 0
DWIDTH 8 0
BBX 8 15 0 -3
BITMAP
0C
12
1E
10
0C
00
00
00
00
00
00
00
00
00
00
ENDCHAR
STARTCHAR uni0365
ENCODING 869
SWIDTH 512 0
DWIDTH 8 0
BBX 8 15 0 -3
BITMAP
04
00
0C
04
04
0E
00
00
00
00
00
00
00
00
00
ENDCHAR
STARTCHAR uni0366
ENCODING 870
SWIDTH 512 0
DWIDTH 8 0
BBX 8 15 0 -3
BITMAP
0C
12
12
0C
00
00
00
00
00
00
00
00
00
00
00
ENDCHAR
STARTCHAR uni0367
ENCODING 871
SWIDTH 512 0
DWIDTH 8 0
BBX 8 15 0 -3
BITMAP
1A
0A
0D
00
00
00
00
00
00
00
00
00
00
00
00
ENDCHAR
STARTCHAR uni0368
ENCODING 872
SWIDTH 512 0
DWIDTH 8 0
BBX 8 15 0 -3
BITMAP
0C
10
10
0E
00
00
00
00
00
00
00
00
00
00
00
ENDCHAR
STARTCHAR uni0369
ENCODING 873
SWIDTH 512 0
DWIDTH 8 0
BBX 8 15 0 -3
BITMAP
02
0E
12
12
0C
00
00
00
00
00
00
00
00
00
00
ENDCHAR
STARTCHAR uni036A
ENCODING 874
SWIDTH 512 0
DWIDTH 8 0
BBX 8 15 0 -3
BITMAP
08
08
0C
0A
0A
00
00
00
00
00
00
00
00
00
00
ENDCHAR
STARTCHAR uni036B
ENCODING 875
SWIDTH 512 0
DWIDTH 8 0
BBX 8 15 0 -3
BITMAP
3F
15
15
00
00
00
00
00
00
00
00
00
00
00
00
ENDCHAR
STARTCHAR uni036C
ENCODING 876
SWIDTH 512 0
DWIDTH 8 0
BBX 8 15 0 -3
BITMAP
0A
08
08
00
00
00
00
00
00
00
00
00
00
00
00
ENDCHAR
STARTCHAR uni036D
ENCODING 877
SWIDTH 512 0
DWIDTH 8 0
BBX 8 15 0 -3
BITMAP
08
1C
08
0C
00
00
00
00
00
00
00
00
00
00
00
ENDCHAR
STARTCHAR uni036E
ENCODING 878
SWIDTH 512 0
DWIDTH 8 0
BBX 8 15 0 -3
BITMAP
12
0A
0C
04
00
00
00
00
00
00
00
00
00
00
00
ENDCHAR
STARTCHAR uni036F
ENCODING 879
SWIDTH 512 0
DWIDTH 8 0
BBX 8 15 0 -3
BITMAP
12
04
0A
12
00
00
00
00
00
00
00
00
00
00
00
ENDCHAR
STARTCHAR uni0374
ENCODING 884
SWIDTH 512 0
DWIDTH 8 0
BBX 8 15 0 -3
BITMAP
00
04
08
10
00
00
00
00
00
00
00
00
00
00
00
ENDCHAR
STARTCHAR uni0375
ENCODING 885
SWIDTH 512 0
DWIDTH 8 0
BBX 8 15 0 -3
BITMAP
00
00
00
00
00
00
00
00
00
00
00
04
08
10
00
ENDCHAR
STARTCHAR uni037A
ENCODING 890
SWIDTH 512 0
DWIDTH 8 0
BBX 8 15 0 -3
BITMAP
00
00
00
00
00
00
00
00
00
00
00
00
10
18
00
ENDCHAR
STARTCHAR uni037E
ENCODING 894
SWIDTH 512 0
DWIDTH 8 0
BBX 8 15 0 -3
BITMAP
00
00
00
00
00
18
18
00
00
18
08
08
10
00
00
ENDCHAR
STARTCHAR tonos
ENCODING 900
SWIDTH 512 0
DWIDTH 8 0
BBX 8 15 0 -3
BITMAP
00
04
08
10
00
00
00
00
00
00
00
00
00
00
00
ENDCHAR
STARTCHAR dieresistonos
ENCODING 901
SWIDTH 512 0
DWIDTH 8 0
BBX 8 15 0 -3
BITMAP
00
04
08
52
00
00
00
00
00
00
00
00
00
00
00
ENDCHAR
STARTCHAR Alphatonos
ENCODING 902
SWIDTH 512 0
DWIDTH 8 0
BBX 8 15 0 -3
BITMAP
00
00
16
29
49
09
09
0F
09
09
09
09
00
00
00
ENDCHAR
STARTCHAR anoteleia
ENCODING 903
SWIDTH 512 0
DWIDTH 8 0
BBX 8 15 0 -3
BITMAP
00
00
00
00
00
18
00
00
00
00
00
00
00
00
00
ENDCHAR
STARTCHAR Epsilontonos
ENCODING 904
SWIDTH 512 0
DWIDTH 8 0
BBX 8 15 0 -3
BITMAP
00
00
1F
28
48
08
0E
08
08
08
08
0F
00
00
00
ENDCHAR
STARTCHAR Etatonos
ENCODING 905
SWIDTH 512 0
DWIDTH 8 0
BBX 8 15 0 -3
BITMAP
00
00
19
29
49
09
0F
09
09
09
09
09
00
00
00
ENDCHAR
STARTCHAR Iotatonos
ENCODING 906
SWIDTH 512 0
DWIDTH 8 0
BBX 8 15 0 -3
BITMAP
00
00
17
22
42
02
02
02
02
02
02
07
00
00
00
ENDCHAR
STARTCHAR Omicrontonos
ENCODING 908
SWIDTH 512 0
DWIDTH 8 0
BBX 8 15 0 -3
BITMAP
00
00
16
29
49
09
09
09
09
09
09
06
00
00
00
ENDCHAR
STARTCHAR Upsilontonos
ENCODING 910
SWIDTH 512 0
DWIDTH 8 0
BBX 8 15 0 -3
BITMAP
00
00
15
25
45
05
02
02
02
02
02
02
00
00
00
ENDCHAR
STARTCHAR Omegatonos
ENCODING 911
SWIDTH 512 0
DWIDTH 8 0
BBX 8 15 0 -3
BITMAP
00
00
16
29
49
09
09
09
09
06
06
09
00
00
00
ENDCHAR
STARTCHAR iotadieresistonos
ENCODING 912
SWIDTH 512 0
DWIDTH 8 0
BBX 8 15 0 -3
BITMAP
00
04
08
52
00
10
10
10
10
10
12
0C
00
00
00
ENDCHAR
STARTCHAR Alpha
ENCODING 913
SWIDTH 512 0
DWIDTH 8 0
BBX 8 15 0 -3
BITMAP
00
00
18
24
42
42
42
7E
42
42
42
42
00
00
00
ENDCHAR
STARTCHAR Beta
ENCODING 914
SWIDTH 512 0
DWIDTH 8 0
BBX 8 15 0 -3
BITMAP
00
00
7C
42
42
42
7C
42
42
42
42
7C
00
00
00
ENDCHAR
STARTCHAR Gamma
ENCODING 915
SWIDTH 512 0
DWIDTH 8 0
BBX 8 15 0 -3
BITMAP
00
00
7E
40
40
40
40
40
40
40
40
40
00
00
00
ENDCHAR
STARTCHAR Delta
ENCODING 916
SWIDTH 512 0
DWIDTH 8 0
BBX 8 15 0 -3
BITMAP
00
00
18
18
18
24
24
24
42
42
42
7E
00
00
00
ENDCHAR
STARTCHAR Epsilon
ENCODING 917
SWIDTH 512 0
DWIDTH 8 0
BBX 8 15 0 -3
BITMAP
00
00
7E
40
40
40
78
40
40
40
40
7E
00
00
00
ENDCHAR
STARTCHAR Zeta
ENCODING 918
SWIDTH 512 0
DWIDTH 8 0
BBX 8 15 0 -3
BITMAP
00
00
7E
02
04
08
08
10
20
20
40
7E
00
00
00
ENDCHAR
STARTCHAR Eta
ENCODING 919
SWIDTH 512 0
DWIDTH 8 0
BBX 8 15 0 -3
BITMAP
00
00
42
42
42
42
7E
42
42
42
42
42
00
00
00
ENDCHAR
STARTCHAR Theta
ENCODING 920
SWIDTH 512 0
DWIDTH 8 0
BBX 8 15 0 -3
BITMAP
00
00
3C
42
42
42
7E
42
42
42
42
3C
00
00
00
ENDCHAR
STARTCHAR Iota
ENCODING 921
SWIDTH 512 0
DWIDTH 8 0
BBX 8 15 0 -3
BITMAP
00
00
3E
08
08
08
08
08
08
08
08
3E
00
00
00
ENDCHAR
STARTCHAR Kappa
ENCODING 922
SWIDTH 512 0
DWIDTH 8 0
BBX 8 15 0 -3
BITMAP
00
00
42
44
48
50
60
50
48
44
42
42
00
00
00
ENDCHAR
STARTCHAR Lambda
ENCODING 923
SWIDTH 512 0
DWIDTH 8 0
BBX 8 15 0 -3
BITMAP
00
00
18
18
18
24
24
24
42
42
42
42
00
00
00
ENDCHAR
STARTCHAR Mu
ENCODING 924
SWIDTH 512 0
DWIDTH 8 0
BBX 8 15 0 -3
BITMAP
00
00
42
66
66
5A
5A
42
42
42
42
42
00
00
00
ENDCHAR
STARTCHAR Nu
ENCODING 925
SWIDTH 512 0
DWIDTH 8 0
BBX 8 15 0 -3
BITMAP
00
00
42
42
62
62
52
4A
46
46
42
42
00
00
00
ENDCHAR
STARTCHAR Xi
ENCODING 926
SWIDTH 512 0
DWIDTH 8 0
BBX 8 15 0 -3
BITMAP
00
00
7E
00
00
00
3C
00
00
00
00
7E
00
00
00
ENDCHAR
STARTCHAR Omicron
ENCODING 927
SWIDTH 512 0
DWIDTH 8 0
BBX 8 15 0 -3
BITMAP
00
00
3C
42
42
42
42
42
42
42
42
3C
00
00
00
ENDCHAR
STARTCHAR Pi
ENCODING 928
SWIDTH 512 0
DWIDTH 8 0
BBX 8 15 0 -3
BITMAP
00
00
7E
24
24
24
24
24
24
24
24
24
00
00
00
ENDCHAR
STARTCHAR Rho
ENCODING 929
SWIDTH 512 0
DWIDTH 8 0
BBX 8 15 0 -3
BITMAP
00
00
7C
42
42
42
42
7C
40
40
40
40
00
00
00
ENDCHAR
STARTCHAR Sigma
ENCODING 931
SWIDTH 512 0
DWIDTH 8 0
BBX 8 15 0 -3
BITMAP
00
00
7E
40
20
10
08
10
20
40
40
7E
00
00
00
ENDCHAR
STARTCHAR Tau
ENCODING 932
SWIDTH 512 0
DWIDTH 8 0
BBX 8 15 0 -3
BITMAP
00
00
7F
08
08
08
08
08
08
08
08
08
00
00
00
ENDCHAR
STARTCHAR Upsilon
ENCODING 933
SWIDTH 512 0
DWIDTH 8 0
BBX 8 15 0 -3
BITMAP
00
00
22
22
22
14
14
08
08
08
08
08
00
00
00
ENDCHAR
STARTCHAR Phi
ENCODING 934
SWIDTH 512 0
DWIDTH 8 0
BBX 8 15 0 -3
BITMAP
00
00
08
1C
2A
2A
2A
2A
2A
2A
1C
08
00
00
00
ENDCHAR
STARTCHAR Chi
ENCODING 935
SWIDTH 512 0
DWIDTH 8 0
BBX 8 15 0 -3
BITMAP
00
00
42
42
24
24
18
18
24
24
42
42
00
00
00
ENDCHAR
STARTCHAR Psi
ENCODING 936
SWIDTH 512 0
DWIDTH 8 0
BBX 8 15 0 -3
BITMAP
00
00
2A
2A
2A
2A
2A
2A
1C
08
08
08
00
00
00
ENDCHAR
STARTCHAR Omega
ENCODING 937
SWIDTH 512 0
DWIDTH 8 0
BBX 8 15 0 -3
BITMAP
00
00
3C
42
42
42
42
42
42
24
24
66
00
00
00
ENDCHAR
STARTCHAR Iotadieresis
ENCODING 938
SWIDTH 512 0
DWIDTH 8 0
BBX 8 15 0 -3
BITMAP
00
22
00
3E
08
08
08
08
08
08
08
3E
00
00
00
ENDCHAR
STARTCHAR Upsilondieresis
ENCODING 939
SWIDTH 512 0
DWIDTH 8 0
BBX 8 15 0 -3
BITMAP
00
22
00
22
22
14
14
08
08
08
08
08
00
00
00
ENDCHAR
STARTCHAR alphatonos
ENCODING 940
SWIDTH 512 0
DWIDTH 8 0
BBX 8 15 0 -3
BITMAP
00
00
08
10
00
3A
46
42
42
46
4A
32
00
00
00
ENDCHAR
STARTCHAR epsilontonos
ENCODING 941
SWIDTH 512 0
DWIDTH 8 0
BBX 8 15 0 -3
BITMAP
00
00
08
10
00
3C
42
40
38
40
42
3C
00
00
00
ENDCHAR
STARTCHAR etatonos
ENCODING 942
SWIDTH 512 0
DWIDTH 8 0
BBX 8 15 0 -3
BITMAP
00
00
08
10
00
5C
62
42
42
42
42
42
02
02
00
ENDCHAR
STARTCHAR iotatonos
ENCODING 943
SWIDTH 512 0
DWIDTH 8 0
BBX 8 15 0 -3
BITMAP
00
00
10
20
00
20
20
20
20
20
24
18
00
00
00
ENDCHAR
STARTCHAR upsilondieresistonos
ENCODING 944
SWIDTH 512 0
DWIDTH 8 0
BBX 8 15 0 -3
BITMAP
00
04
08
52
00
42
42
42
42
42
42
3C
00
00
00
ENDCHAR
STARTCHAR alpha
ENCODING 945
SWIDTH 512 0
DWIDTH 8 0
BBX 8 15 0 -3
BITMAP
00
00
00
00
00
3A
46
42
42
46
4A
32
00
00
00
ENDCHAR
STARTCHAR beta
ENCODING 946
SWIDTH 512 0
DWIDTH 8 0
BBX 8 15 0 -3
BITMAP
00
00
38
44
44
44
7C
42
42
42
62
5C
40
40
00
ENDCHAR
STARTCHAR gamma
ENCODING 947
SWIDTH 512 0
DWIDTH 8 0
BBX 8 15 0 -3
BITMAP
00
00
00
00
00
22
22
22
14
14
08
08
08
08
00
ENDCHAR
STARTCHAR delta
ENCODING 948
SWIDTH 512 0
DWIDTH 8 0
BBX 8 15 0 -3
BITMAP
00
00
3C
42
20
3C
42
42
42
42
42
3C
00
00
00
ENDCHAR
STARTCHAR epsilon
ENCODING 949
SWIDTH 512 0
DWIDTH 8 0
BBX 8 15 0 -3
BITMAP
00
00
00
00
00
3C
42
40
38
40
42
3C
00
00
00
ENDCHAR
STARTCHAR zeta
ENCODING 950
SWIDTH 512 0
DWIDTH 8 0
BBX 8 15 0 -3
BITMAP
00
00
7E
10
20
20
40
40
40
40
40
3C
02
0C
00
ENDCHAR
STARTCHAR eta
ENCODING 951
SWIDTH 512 0
DWIDTH 8 0
BBX 8 15 0 -3
BITMAP
00
00
00
00
00
5C
62
42
42
42
42
42
02
02
00
ENDCHAR
STARTCHAR theta
ENCODING 952
SWIDTH 512 0
DWIDTH 8 0
BBX 8 15 0 -3
BITMAP
00
00
1C
22
22
22
3E
22
22
22
22
1C
00
00
00
ENDCHAR
STARTCHAR iota
ENCODING 953
SWIDTH 512 0
DWIDTH 8 0
BBX 8 15 0 -3
BITMAP
00
00
00
00
00
20
20
20
20
20
24
18
00
00
00
ENDCHAR
STARTCHAR kappa
ENCODING 954
SWIDTH 512 0
DWIDTH 8 0
BBX 8 15 0 -3
BITMAP
00
00
00
00
00
42
44
48
50
68
44
42
00
00
00
ENDCHAR
STARTCHAR lambda
ENCODING 955
SWIDTH 512 0
DWIDTH 8 0
BBX 8 15 0 -3
BITMAP
00
00
3C
42
02
3A
46
42
42
42
42
42
00
00
00
ENDCHAR
STARTCHAR mu
ENCODING 956
SWIDTH 512 0
DWIDTH 8 0
BBX 8 15 0 -3
BITMAP
00
00
00
00
00
42
42
42
42
42
66
5A
40
40
00
ENDCHAR
STARTCHAR nu
ENCODING 957
SWIDTH 512 0
DWIDTH 8 0
BBX 8 15 0 -3
BITMAP
00
00
00
00
00
22
22
22
14
14
08
08
00
00
00
ENDCHAR
STARTCHAR xi
ENCODING 958
SWIDTH 512 0
DWIDTH 8 0
BBX 8 15 0 -3
BITMAP
00
00
7E
10
20
20
1C
20
40
40
40
3C
02
0C
00
ENDCHAR
STARTCHAR omicron
ENCODING 959
SWIDTH 512 0
DWIDTH 8 0
BBX 8 15 0 -3
BITMAP
00
00
00
00
00
3C
42
42
42
42
42
3C
00
00
00
ENDCHAR
STARTCHAR pi
ENCODING 960
SWIDTH 512 0
DWIDTH 8 0
BBX 8 15 0 -3
BITMAP
00
00
00
00
00
7E
24
24
24
24
24
24
00
00
00
ENDCHAR
STARTCHAR rho
ENCODING 961
SWIDTH 512 0
DWIDTH 8 0
BBX 8 15 0 -3
BITMAP
00
00
00
00
00
3C
42
42
42
42
62
5C
40
40
00
ENDCHAR
STARTCHAR sigma1
ENCODING 962
SWIDTH 512 0
DWIDTH 8 0
BBX 8 15 0 -3
BITMAP
00
00
00
00
00
3C
42
40
40
40
40
3C
02
0C
00
ENDCHAR
STARTCHAR sigma
ENCODING 963
SWIDTH 512 0
DWIDTH 8 0
BBX 8 15 0 -3
BITMAP
00
00
00
00
00
3E
48
44
42
42
42
3C
00
00
00
ENDCHAR
STARTCHAR tau
ENCODING 964
SWIDTH 512 0
DWIDTH 8 0
BBX 8 15 0 -3
BITMAP
00
00
00
00
00
7E
10
10
10
10
12
0C
00
00
00
ENDCHAR
STARTCHAR upsilon
ENCODING 965
SWIDTH 512 0
DWIDTH 8 0
BBX 8 15 0 -3
BITMAP
00
00
00
00
00
42
42
42
42
42
42
3C
00
00
00
ENDCHAR
STARTCHAR phi
ENCODING 966
SWIDTH 512 0
DWIDTH 8 0
BBX 8 15 0 -3
BITMAP
00
00
00
00
00
14
2A
2A
2A
2A
2A
1C
08
08
00
ENDCHAR
STARTCHAR chi
ENCODING 967
SWIDTH 512 0
DWIDTH 8 0
BBX 8 15 0 -3
BITMAP
00
00
00
00
00
22
22
14
14
08
14
14
22
22
00
ENDCHAR
STARTCHAR psi
ENCODING 968
SWIDTH 512 0
DWIDTH 8 0
BBX 8 15 0 -3
BITMAP
00
00
00
00
00
2A
2A
2A
2A
2A
2A
1C
08
08
00
ENDCHAR
STARTCHAR omega
ENCODING 969
SWIDTH 512 0
DWIDTH 8 0
BBX 8 15 0 -3
BITMAP
00
00
00
00
00
22
2A
2A
2A
2A
2A
14
00
00
00
ENDCHAR
STARTCHAR iotadieresis
ENCODING 970
SWIDTH 512 0
DWIDTH 8 0
BBX 8 15 0 -3
BITMAP
00
00
00
42
00
10
10
10
10
10
12
0C
00
00
00
ENDCHAR
STARTCHAR upsilondieresis
ENCODING 971
SWIDTH 512 0
DWIDTH 8 0
BBX 8 15 0 -3
BITMAP
00
00
00
42
00
42
42
42
42
42
42
3C
00
00
00
ENDCHAR
STARTCHAR omicrontonos
ENCODING 972
SWIDTH 512 0
DWIDTH 8 0
BBX 8 15 0 -3
BITMAP
00
00
08
10
00
3C
42
42
42
42
42
3C
00
00
00
ENDCHAR
STARTCHAR upsilontonos
ENCODING 973
SWIDTH 512 0
DWIDTH 8 0
BBX 8 15 0 -3
BITMAP
00
00
08
10
00
42
42
42
42
42
42
3C
00
00
00
ENDCHAR
STARTCHAR omegatonos
ENCODING 974
SWIDTH 512 0
DWIDTH 8 0
BBX 8 15 0 -3
BITMAP
00
00
04
08
00
22
2A
2A
2A
2A
2A
14
00
00
00
ENDCHAR
STARTCHAR uni03D0
ENCODING 976
SWIDTH 512 0
DWIDTH 8 0
BBX 8 15 0 -3
BITMAP
00
00
18
24
44
48
5C
62
42
42
24
18
00
00
00
ENDCHAR
STARTCHAR theta1
ENCODING 977
SWIDTH 512 0
DWIDTH 8 0
BBX 8 15 0 -3
BITMAP
00
00
1C
22
22
1F
02
62
22
22
22
1C
00
00
00
ENDCHAR
STARTCHAR Upsilon1
ENCODING 978
SWIDTH 512 0
DWIDTH 8 0
BBX 8 15 0 -3
BITMAP
00
00
44
2A
28
10
10
10
10
10
10
10
00
00
00
ENDCHAR
STARTCHAR uni03D3
ENCODING 979
SWIDTH 512 0
DWIDTH 8 0
BBX 8 15 0 -3
BITMAP
00
00
52
55
14
08
08
08
08
08
08
08
00
00
00
ENDCHAR
STARTCHAR uni03D4
ENCODING 980
SWIDTH 512 0
DWIDTH 8 0
BBX 8 15 0 -3
BITMAP
00
44
00
44
2A
28
10
10
10
10
10
10
00
00
00
ENDCHAR
STARTCHAR phi1
ENCODING 981
SWIDTH 512 0
DWIDTH 8 0
BBX 8 15 0 -3
BITMAP
00
00
00
08
08
1C
2A
2A
2A
2A
2A
1C
08
08
00
ENDCHAR
STARTCHAR omega1
ENCODING 982
SWIDTH 512 0
DWIDTH 8 0
BBX 8 15 0 -3
BITMAP
00
00
00
00
00
7F
22
2A
2A
2A
2A
14
00
00
00
ENDCHAR
STARTCHAR uni03D7
ENCODING 983
SWIDTH 512 0
DWIDTH 8 0
BBX 8 15 0 -3
BITMAP
00
00
08
10
00
42
24
28
38
28
48
46
02
1C
00
ENDCHAR
STARTCHAR uni03D8
ENCODING 984
SWIDTH 512 0
DWIDTH 8 0
BBX 8 15 0 -3
BITMAP
00
1C
22
22
22
22
22
22
22
1C
08
08
1C
00
00
ENDCHAR
STARTCHAR uni03D9
ENCODING 985
SWIDTH 512 0
DWIDTH 8 0
BBX 8 15 0 -3
BITMAP
00
00
00
00
00
08
14
14
14
14
08
08
08
00
00
ENDCHAR
STARTCHAR uni03DA
ENCODING 986
SWIDTH 512 0
DWIDTH 8 0
BBX 8 15 0 -3
BITMAP
00
00
1C
22
40
40
40
40
40
40
3C
02
04
00
00
ENDCHAR
STARTCHAR uni03DB
ENCODING 987
SWIDTH 512 0
DWIDTH 8 0
BBX 8 15 0 -3
BITMAP
00
00
00
00
02
3C
40
40
40
40
40
3C
02
0C
00
ENDCHAR
STARTCHAR uni03DC
ENCODING 988
SWIDTH 512 0
DWIDTH 8 0
BBX 8 15 0 -3
BITMAP
00
00
7E
40
40
40
78
40
40
40
40
40
00
00
00
ENDCHAR
STARTCHAR uni03DD
ENCODING 989
SWIDTH 512 0
DWIDTH 8 0
BBX 8 15 0 -3
BITMAP
00
00
00
00
00
3E
20
20
3C
20
20
20
20
20
00
ENDCHAR
STARTCHAR uni03DE
ENCODING 990
SWIDTH 512 0
DWIDTH 8 0
BBX 8 15 0 -3
BITMAP
00
00
40
20
22
26
2A
2A
32
22
02
01
00
00
00
ENDCHAR
STARTCHAR uni03DF
ENCODING 991
SWIDTH 512 0
DWIDTH 8 0
BBX 8 15 0 -3
BITMAP
00
00
10
10
20
20
40
7E
02
04
04
08
08
00
00
ENDCHAR
STARTCHAR uni03E0
ENCODING 992
SWIDTH 512 0
DWIDTH 8 0
BBX 8 15 0 -3
BITMAP
00
00
18
18
18
24
24
24
4A
4A
52
52
00
00
00
ENDCHAR
STARTCHAR uni03E1
ENCODING 993
SWIDTH 512 0
DWIDTH 8 0
BBX 8 15 0 -3
BITMAP
00
00
60
10
08
0C
14
26
0A
12
02
02
02
00
00
ENDCHAR
STARTCHAR uni03E2
ENCODING 994
SWIDTH 512 0
DWIDTH 8 0
BBX 8 15 0 -3
BITMAP
00
00
00
2A
2A
2A
2A
2A
2A
16
02
1C
00
00
00
ENDCHAR
STARTCHAR uni03E3
ENCODING 995
SWIDTH 512 0
DWIDTH 8 0
BBX 8 15 0 -3
BITMAP
00
00
00
00
00
2A
2A
2A
2A
2A
2A
16
02
1C
00
ENDCHAR
STARTCHAR uni03E4
ENCODING 996
SWIDTH 512 0
DWIDTH 8 0
BBX 8 15 0 -3
BITMAP
00
00
32
42
42
42
3E
02
02
02
02
02
00
00
00
ENDCHAR
STARTCHAR uni03E5
ENCODING 997
SWIDTH 512 0
DWIDTH 8 0
BBX 8 15 0 -3
BITMAP
00
00
14
24
24
24
1C
04
04
04
04
04
00
00
00
ENDCHAR
STARTCHAR uni03E6
ENCODING 998
SWIDTH 512 0
DWIDTH 8 0
BBX 8 15 0 -3
BITMAP
00
00
70
20
20
20
3C
22
22
22
22
72
02
0C
00
ENDCHAR
STARTCHAR uni03E7
ENCODING 999
SWIDTH 512 0
DWIDTH 8 0
BBX 8 15 0 -3
BITMAP
00
00
00
20
10
3C
52
52
22
02
42
3C
00
00
00
ENDCHAR
STARTCHAR uni03E8
ENCODING 1000
SWIDTH 512 0
DWIDTH 8 0
BBX 8 15 0 -3
BITMAP
00
00
3C
42
42
04
08
10
20
42
42
3C
00
00
00
ENDCHAR
STARTCHAR uni03E9
ENCODING 1001
SWIDTH 512 0
DWIDTH 8 0
BBX 8 15 0 -3
BITMAP
00
00
00
3C
42
42
24
18
10
20
40
3E
00
00
00
ENDCHAR
STARTCHAR uni03EA
ENCODING 1002
SWIDTH 512 0
DWIDTH 8 0
BBX 8 15 0 -3
BITMAP
00
00
36
08
08
14
14
14
22
22
22
3E
00
00
00
ENDCHAR
STARTCHAR uni03EB
ENCODING 1003
SWIDTH 512 0
DWIDTH 8 0
BBX 8 15 0 -3
BITMAP
00
00
00
00
00
36
08
14
14
22
22
3E
00
00
00
ENDCHAR
STARTCHAR uni03EC
ENCODING 1004
SWIDTH 512 0
DWIDTH 8 0
BBX 8 15 0 -3
BITMAP
00
00
3E
40
7C
42
42
42
42
42
42
3C
00
00
00
ENDCHAR
STARTCHAR uni03ED
ENCODING 1005
SWIDTH 512 0
DWIDTH 8 0
BBX 8 15 0 -3
BITMAP
00
00
00
00
00
3C
40
5C
42
42
42
3C
00
00
00
ENDCHAR
STARTCHAR uni03EE
ENCODING 1006
SWIDTH 512 0
DWIDTH 8 0
BBX 8 15 0 -3
BITMAP
00
00
1C
08
3E
2A
08
08
08
08
08
08
00
00
00
ENDCHAR
STARTCHAR uni03EF
ENCODING 1007
SWIDTH 512 0
DWIDTH 8 0
BBX 8 15 0 -3
BITMAP
00
00
00
00
08
0A
3E
28
08
08
08
00
00
00
00
ENDCHAR
STARTCHAR uni03F0
ENCODING 1008
SWIDTH 512 0
DWIDTH 8 0
BBX 8 15 0 -3
BITMAP
00
00
00
00
00
42
24
28
38
28
48
46
00
00
00
ENDCHAR
STARTCHAR uni03F1
ENCODING 1009
SWIDTH 512 0
DWIDTH 8 0
BBX 8 15 0 -3
BITMAP
00
00
00
00
00
3C
42
42
42
42
62
5C
40
3C
00
ENDCHAR
STARTCHAR uni03F2
ENCODING 1010
SWIDTH 512 0
DWIDTH 8 0
BBX 8 15 0 -3
BITMAP
00
00
00
00
00
3C
42
40
40
40
42
3C
00
00
00
ENDCHAR
STARTCHAR uni03F3
ENCODING 1011
SWIDTH 512 0
DWIDTH 8 0
BBX 8 15 0 -3
BITMAP
00
00
02
02
00
06
02
02
02
02
02
22
22
1C
00
ENDCHAR
STARTCHAR uni03F4
ENCODING 1012
SWIDTH 512 0
DWIDTH 8 0
BBX 8 15 0 -3
BITMAP
00
00
3C
42
42
42
7E
42
42
42
42
3C
00
00
00
ENDCHAR
STARTCHAR uni03F5
ENCODING 1013
SWIDTH 512 0
DWIDTH 8 0
BBX 8 15 0 -3
BITMAP
00
00
00
00
00
1E
20
20
3C
20
20
1E
00
00
00
ENDCHAR
STARTCHAR uni03F6
ENCODING 1014
SWIDTH 512 0
DWIDTH 8 0
BBX 8 15 0 -3
BITMAP
00
00
00
00
00
3C
02
02
1E
02
02
3C
00
00
00
ENDCHAR
STARTCHAR uni0400
ENCODING 1024
SWIDTH 512 0
DWIDTH 8 0
BBX 8 15 0 -3
BITMAP
10
08
00
7E
40
40
40
7C
40
40
40
7E
00
00
00
ENDCHAR
STARTCHAR afii10023
ENCODING 1025
SWIDTH 512 0
DWIDTH 8 0
BBX 8 15 0 -3
BITMAP
24
24
00
7E
40
40
40
7C
40
40
40
7E
00
00
00
ENDCHAR
STARTCHAR afii10051
ENCODING 1026
SWIDTH 512 0
DWIDTH 8 0
BBX 8 15 0 -3
BITMAP
00
00
7C
10
10
1C
12
12
12
12
12
12
02
0C
00
ENDCHAR
STARTCHAR afii10052
ENCODING 1027
SWIDTH 512 0
DWIDTH 8 0
BBX 8 15 0 -3
BITMAP
08
10
00
7E
40
40
40
40
40
40
40
40
00
00
00
ENDCHAR
STARTCHAR afii10053
ENCODING 1028
SWIDTH 512 0
DWIDTH 8 0
BBX 8 15 0 -3
BITMAP
00
00
1C
22
40
40
78
40
40
42
22
1C
00
00
00
ENDCHAR
STARTCHAR afii10054
ENCODING 1029
SWIDTH 512 0
DWIDTH 8 0
BBX 8 15 0 -3
BITMAP
00
00
3C
42
42
40
30
0C
02
42
42
3C
00
00
00
ENDCHAR
STARTCHAR afii10055
ENCODING 1030
SWIDTH 512 0
DWIDTH 8 0
BBX 8 15 0 -3
BITMAP
00
00
3E
08
08
08
08
08
08
08
08
3E
00
00
00
ENDCHAR
STARTCHAR afii10056
ENCODING 1031
SWIDTH 512 0
DWIDTH 8 0
BBX 8 15 0 -3
BITMAP
00
14
00
3E
08
08
08
08
08
08
08
3E
00
00
00
ENDCHAR
STARTCHAR afii10057
ENCODING 1032
SWIDTH 512 0
DWIDTH 8 0
BBX 8 15 0 -3
BITMAP
00
00
0E
04
04
04
04
04
04
44
44
38
00
00
00
ENDCHAR
STARTCHAR afii10058
ENCODING 1033
SWIDTH 512 0
DWIDTH 8 0
BBX 8 15 0 -3
BITMAP
00
00
38
28
28
28
2C
2A
2A
2A
2A
4C
00
00
00
ENDCHAR
STARTCHAR afii10059
ENCODING 1034
SWIDTH 512 0
DWIDTH 8 0
BBX 8 15 0 -3
BITMAP
00
00
48
48
48
48
7C
4A
4A
4A
4A
4C
00
00
00
ENDCHAR
STARTCHAR afii10060
ENCODING 1035
SWIDTH 512 0
DWIDTH 8 0
BBX 8 15 0 -3
BITMAP
00
00
7C
10
10
1C
12
12
12
12
12
12
00
00
00
ENDCHAR
STARTCHAR afii10061
ENCODING 1036
SWIDTH 512 0
DWIDTH 8 0
BBX 8 15 0 -3
BITMAP
08
10
00
42
44
48
50
60
50
48
44
42
00
00
00
ENDCHAR
STARTCHAR uni040D
ENCODING 1037
SWIDTH 512 0
DWIDTH 8 0
BBX 8 15 0 -3
BITMAP
00
10
08
42
46
46
4A
52
62
62
42
42
00
00
00
ENDCHAR
STARTCHAR afii10062
ENCODING 1038
SWIDTH 512 0
DWIDTH 8 0
BBX 8 15 0 -3
BITMAP
22
1C
00
22
22
14
14
08
08
10
20
20
00
00
00
ENDCHAR
STARTCHAR afii10145
ENCODING 1039
SWIDTH 512 0
DWIDTH 8 0
BBX 8 15 0 -3
BITMAP
00
00
22
22
22
22
22
22
22
22
22
3E
08
00
00
ENDCHAR
STARTCHAR afii10017
ENCODING 1040
SWIDTH 512 0
DWIDTH 8 0
BBX 8 15 0 -3
BITMAP
00
00
18
24
42
42
42
7E
42
42
42
42
00
00
00
ENDCHAR
STARTCHAR afii10018
ENCODING 1041
SWIDTH 512 0
DWIDTH 8 0
BBX 8 15 0 -3
BITMAP
00
00
7C
40
40
40
7C
42
42
42
42
7C
00
00
00
ENDCHAR
STARTCHAR afii10019
ENCODING 1042
SWIDTH 512 0
DWIDTH 8 0
BBX 8 15 0 -3
BITMAP
00
00
7C
42
42
42
7C
42
42
42
42
7C
00
00
00
ENDCHAR
STARTCHAR afii10020
ENCODING 1043
SWIDTH 512 0
DWIDTH 8 0
BBX 8 15 0 -3
BITMAP
00
00
7E
40
40
40
40
40
40
40
40
40
00
00
00
ENDCHAR
STARTCHAR afii10021
ENCODING 1044
SWIDTH 512 0
DWIDTH 8 0
BBX 8 15 0 -3
BITMAP
00
00
1C
14
14
14
14
24
24
24
24
7E
42
00
00
ENDCHAR
STARTCHAR afii10022
ENCODING 1045
SWIDTH 512 0
DWIDTH 8 0
BBX 8 15 0 -3
BITMAP
00
00
7E
40
40
40
78
40
40
40
40
7E
00
00
00
ENDCHAR
STARTCHAR afii10024
ENCODING 1046
SWIDTH 512 0
DWIDTH 8 0
BBX 8 15 0 -3
BITMAP
00
00
2A
2A
2A
2A
1C
2A
2A
2A
2A
2A
00
00
00
ENDCHAR
STARTCHAR afii10025
ENCODING 1047
SWIDTH 512 0
DWIDTH 8 0
BBX 8 15 0 -3
BITMAP
00
00
38
44
02
04
18
04
02
42
44
38
00
00
00
ENDCHAR
STARTCHAR afii10026
ENCODING 1048
SWIDTH 512 0
DWIDTH 8 0
BBX 8 15 0 -3
BITMAP
00
00
42
42
46
46
4A
52
62
62
42
42
00
00
00
ENDCHAR
STARTCHAR afii10027
ENCODING 1049
SWIDTH 512 0
DWIDTH 8 0
BBX 8 15 0 -3
BITMAP
42
3C
00
42
46
46
4A
52
62
62
42
42
00
00
00
ENDCHAR
STARTCHAR afii10028
ENCODING 1050
SWIDTH 512 0
DWIDTH 8 0
BBX 8 15 0 -3
BITMAP
00
00
42
44
48
50
60
50
48
44
42
42
00
00
00
ENDCHAR
STARTCHAR afii10029
ENCODING 1051
SWIDTH 512 0
DWIDTH 8 0
BBX 8 15 0 -3
BITMAP
00
00
1E
12
12
12
12
12
12
12
52
22
00
00
00
ENDCHAR
STARTCHAR afii10030
ENCODING 1052
SWIDTH 512 0
DWIDTH 8 0
BBX 8 15 0 -3
BITMAP
00
00
42
66
66
5A
5A
42
42
42
42
42
00
00
00
ENDCHAR
STARTCHAR afii10031
ENCODING 1053
SWIDTH 512 0
DWIDTH 8 0
BBX 8 15 0 -3
BITMAP
00
00
42
42
42
42
7E
42
42
42
42
42
00
00
00
ENDCHAR
STARTCHAR afii10032
ENCODING 1054
SWIDTH 512 0
DWIDTH 8 0
BBX 8 15 0 -3
BITMAP
00
00
3C
42
42
42
42
42
42
42
42
3C
00
00
00
ENDCHAR
STARTCHAR afii10033
ENCODING 1055
SWIDTH 512 0
DWIDTH 8 0
BBX 8 15 0 -3
BITMAP
00
00
7E
24
24
24
24
24
24
24
24
24
00
00
00
ENDCHAR
STARTCHAR afii10034
ENCODING 1056
SWIDTH 512 0
DWIDTH 8 0
BBX 8 15 0 -3
BITMAP
00
00
7C
42
42
42
42
7C
40
40
40
40
00
00
00
ENDCHAR
STARTCHAR afii10035
ENCODING 1057
SWIDTH 512 0
DWIDTH 8 0
BBX 8 15 0 -3
BITMAP
00
00
3C
42
42
40
40
40
40
42
42
3C
00
00
00
ENDCHAR
STARTCHAR afii10036
ENCODING 1058
SWIDTH 512 0
DWIDTH 8 0
BBX 8 15 0 -3
BITMAP
00
00
3E
08
08
08
08
08
08
08
08
08
00
00
00
ENDCHAR
STARTCHAR afii10037
ENCODING 1059
SWIDTH 512 0
DWIDTH 8 0
BBX 8 15 0 -3
BITMAP
00
00
42
42
42
42
46
3A
02
02
44
38
00
00
00
ENDCHAR
STARTCHAR afii10038
ENCODING 1060
SWIDTH 512 0
DWIDTH 8 0
BBX 8 15 0 -3
BITMAP
00
00
08
1C
2A
2A
2A
2A
2A
2A
1C
08
00
00
00
ENDCHAR
STARTCHAR afii10039
ENCODING 1061
SWIDTH 512 0
DWIDTH 8 0
BBX 8 15 0 -3
BITMAP
00
00
42
42
24
24
18
18
24
24
42
42
00
00
00
ENDCHAR
STARTCHAR afii10040
ENCODING 1062
SWIDTH 512 0
DWIDTH 8 0
BBX 8 15 0 -3
BITMAP
00
00
44
44
44
44
44
44
44
44
44
7E
02
02
00
ENDCHAR
STARTCHAR afii10041
ENCODING 1063
SWIDTH 512 0
DWIDTH 8 0
BBX 8 15 0 -3
BITMAP
00
00
42
42
42
42
3E
02
02
02
02
02
00
00
00
ENDCHAR
STARTCHAR afii10042
ENCODING 1064
SWIDTH 512 0
DWIDTH 8 0
BBX 8 15 0 -3
BITMAP
00
00
2A
2A
2A
2A
2A
2A
2A
2A
2A
3E
00
00
00
ENDCHAR
STARTCHAR afii10043
ENCODING 1065
SWIDTH 512 0
DWIDTH 8 0
BBX 8 15 0 -3
BITMAP
00
00
54
54
54
54
54
54
54
54
54
7E
02
02
00
ENDCHAR
STARTCHAR afii10044
ENCODING 1066
SWIDTH 512 0
DWIDTH 8 0
BBX 8 15 0 -3
BITMAP
00
00
70
10
10
10
1C
12
12
12
12
1C
00
00
00
ENDCHAR
STARTCHAR afii10045
ENCODING 1067
SWIDTH 512 0
DWIDTH 8 0
BBX 8 15 0 -3
BITMAP
00
00
42
42
42
42
72
4A
4A
4A
4A
72
00
00
00
ENDCHAR
STARTCHAR afii10046
ENCODING 1068
SWIDTH 512 0
DWIDTH 8 0
BBX 8 15 0 -3
BITMAP
00
00
20
20
20
20
3C
22
22
22
22
3C
00
00
00
ENDCHAR
STARTCHAR afii10047
ENCODING 1069
SWIDTH 512 0
DWIDTH 8 0
BBX 8 15 0 -3
BITMAP
00
00
38
44
02
02
1E
02
02
42
44
38
00
00
00
ENDCHAR
STARTCHAR afii10048
ENCODING 1070
SWIDTH 512 0
DWIDTH 8 0
BBX 8 15 0 -3
BITMAP
00
00
4C
52
52
52
72
52
52
52
52
4C
00
00
00
ENDCHAR
STARTCHAR afii10049
ENCODING 1071
SWIDTH 512 0
DWIDTH 8 0
BBX 8 15 0 -3
BITMAP
00
00
3E
42
42
42
42
3E
12
22
42
42
00
00
00
ENDCHAR
STARTCHAR afii10065
ENCODING 1072
SWIDTH 512 0
DWIDTH 8 0
BBX 8 15 0 -3
BITMAP
00
00
00
00
00
3C
42
0E
32
42
46
3A
00
00
00
ENDCHAR
STARTCHAR afii10066
ENCODING 1073
SWIDTH 512 0
DWIDTH 8 0
BBX 8 15 0 -3
BITMAP
00
00
06
38
40
5C
62
42
42
42
42
3C
00
00
00
ENDCHAR
STARTCHAR afii10067
ENCODING 1074
SWIDTH 512 0
DWIDTH 8 0
BBX 8 15 0 -3
BITMAP
00
00
00
00
00
7C
42
42
7C
42
42
7C
00
00
00
ENDCHAR
STARTCHAR afii10068
ENCODING 1075
SWIDTH 512 0
DWIDTH 8 0
BBX 8 15 0 -3
BITMAP
00
00
00
00
00
3E
20
20
20
20
20
20
00
00
00
ENDCHAR
STARTCHAR afii10069
ENCODING 1076
SWIDTH 512 0
DWIDTH 8 0
BBX 8 15 0 -3
BITMAP
00
00
00
00
00
1C
14
14
24
24
24
7E
42
00
00
ENDCHAR
STARTCHAR afii10070
ENCODING 1077
SWIDTH 512 0
DWIDTH 8 0
BBX 8 15 0 -3
BITMAP
00
00
00
00
00
3C
42
42
7E
40
42
3C
00
00
00
ENDCHAR
STARTCHAR afii10072
ENCODING 1078
SWIDTH 512 0
DWIDTH 8 0
BBX 8 15 0 -3
BITMAP
00
00
00
00
00
2A
2A
2A
1C
2A
2A
2A
00
00
00
ENDCHAR
STARTCHAR afii10073
ENCODING 1079
SWIDTH 512 0
DWIDTH 8 0
BBX 8 15 0 -3
BITMAP
00
00
00
00
00
3C
42
02
0C
02
42
3C
00
00
00
ENDCHAR
STARTCHAR afii10074
ENCODING 1080
SWIDTH 512 0
DWIDTH 8 0
BBX 8 15 0 -3
BITMAP
00
00
00
00
00
42
46
4A
52
62
42
42
00
00
00
ENDCHAR
STARTCHAR afii10075
ENCODING 1081
SWIDTH 512 0
DWIDTH 8 0
BBX 8 15 0 -3
BITMAP
00
00
42
3C
00
42
46
4A
52
62
42
42
00
00
00
ENDCHAR
STARTCHAR afii10076
ENCODING 1082
SWIDTH 512 0
DWIDTH 8 0
BBX 8 15 0 -3
BITMAP
00
00
00
00
00
42
44
48
50
68
44
42
00
00
00
ENDCHAR
STARTCHAR afii10077
ENCODING 1083
SWIDTH 512 0
DWIDTH 8 0
BBX 8 15 0 -3
BITMAP
00
00
00
00
00
1E
12
12
12
12
12
62
00
00
00
ENDCHAR
STARTCHAR afii10078
ENCODING 1084
SWIDTH 512 0
DWIDTH 8 0
BBX 8 15 0 -3
BITMAP
00
00
00
00
00
42
66
66
5A
5A
42
42
00
00
00
ENDCHAR
STARTCHAR afii10079
ENCODING 1085
SWIDTH 512 0
DWIDTH 8 0
BBX 8 15 0 -3
BITMAP
00
00
00
00
00
42
42
42
7E
42
42
42
00
00
00
ENDCHAR
STARTCHAR afii10080
ENCODING 1086
SWIDTH 512 0
DWIDTH 8 0
BBX 8 15 0 -3
BITMAP
00
00
00
00
00
3C
42
42
42
42
42
3C
00
00
00
ENDCHAR
STARTCHAR afii10081
ENCODING 1087
SWIDTH 512 0
DWIDTH 8 0
BBX 8 15 0 -3
BITMAP
00
00
00
00
00
7E
42
42
42
42
42
42
00
00
00
ENDCHAR
STARTCHAR afii10082
ENCODING 1088
SWIDTH 512 0
DWIDTH 8 0
BBX 8 15 0 -3
BITMAP
00
00
00
00
00
5C
62
42
42
42
62
5C
40
40
00
ENDCHAR
STARTCHAR afii10083
ENCODING 1089
SWIDTH 512 0
DWIDTH 8 0
BBX 8 15 0 -3
BITMAP
00
00
00
00
00
3C
42
40
40
40
42
3C
00
00
00
ENDCHAR
STARTCHAR afii10084
ENCODING 1090
SWIDTH 512 0
DWIDTH 8 0
BBX 8 15 0 -3
BITMAP
00
00
00
00
00
3E
08
08
08
08
08
08
00
00
00
ENDCHAR
STARTCHAR afii10085
ENCODING 1091
SWIDTH 512 0
DWIDTH 8 0
BBX 8 15 0 -3
BITMAP
00
00
00
00
00
42
42
42
42
46
3A
02
42
3C
00
ENDCHAR
STARTCHAR afii10086
ENCODING 1092
SWIDTH 512 0
DWIDTH 8 0
BBX 8 15 0 -3
BITMAP
00
00
00
08
08
1C
2A
2A
2A
2A
2A
1C
08
08
00
ENDCHAR
STARTCHAR afii10087
ENCODING 1093
SWIDTH 512 0
DWIDTH 8 0
BBX 8 15 0 -3
BITMAP
00
00
00
00
00
42
42
24
18
24
42
42
00
00
00
ENDCHAR
STARTCHAR afii10088
ENCODING 1094
SWIDTH 512 0
DWIDTH 8 0
BBX 8 15 0 -3
BITMAP
00
00
00
00
00
44
44
44
44
44
44
7E
02
02
00
ENDCHAR
STARTCHAR afii10089
ENCODING 1095
SWIDTH 512 0
DWIDTH 8 0
BBX 8 15 0 -3
BITMAP
00
00
00
00
00
42
42
42
3E
02
02
02
00
00
00
ENDCHAR
STARTCHAR afii10090
ENCODING 1096
SWIDTH 512 0
DWIDTH 8 0
BBX 8 15 0 -3
BITMAP
00
00
00
00
00
2A
2A
2A
2A
2A
2A
3E
00
00
00
ENDCHAR
STARTCHAR afii10091
ENCODING 1097
SWIDTH 512 0
DWIDTH 8 0
BBX 8 15 0 -3
BITMAP
00
00
00
00
00
54
54
54
54
54
54
7E
02
02
00
ENDCHAR
STARTCHAR afii10092
ENCODING 1098
SWIDTH 512 0
DWIDTH 8 0
BBX 8 15 0 -3
BITMAP
00
00
00
00
00
70
10
10
1C
12
12
1C
00
00
00
ENDCHAR
STARTCHAR afii10093
ENCODING 1099
SWIDTH 512 0
DWIDTH 8 0
BBX 8 15 0 -3
BITMAP
00
00
00
00
00
42
42
42
72
4A
4A
72
00
00
00
ENDCHAR
STARTCHAR afii10094
ENCODING 1100
SWIDTH 512 0
DWIDTH 8 0
BBX 8 15 0 -3
BITMAP
00
00
00
00
00
20
20
20
3C
22
22
3C
00
00
00
ENDCHAR
STARTCHAR afii10095
ENCODING 1101
SWIDTH 512 0
DWIDTH 8 0
BBX 8 15 0 -3
BITMAP
00
00
00
00
00
3C
42
02
1E
02
42
3C
00
00
00
ENDCHAR
STARTCHAR afii10096
ENCODING 1102
SWIDTH 512 0
DWIDTH 8 0
BBX 8 15 0 -3
BITMAP
00
00
00
00
00
4C
52
52
72
52
52
4C
00
00
00
ENDCHAR
STARTCHAR afii10097
ENCODING 1103
SWIDTH 512 0
DWIDTH 8 0
BBX 8 15 0 -3
BITMAP
00
00
00
00
00
3E
42
42
3E
12
22
42
00
00
00
ENDCHAR
STARTCHAR uni0450
ENCODING 1104
SWIDTH 512 0
DWIDTH 8 0
BBX 8 15 0 -3
BITMAP
00
00
10
08
00
3C
42
42
7E
40
42
3C
00
00
00
ENDCHAR
STARTCHAR afii10071
ENCODING 1105
SWIDTH 512 0
DWIDTH 8 0
BBX 8 15 0 -3
BITMAP
00
00
24
24
00
3C
42
42
7E
40
42
3C
00
00
00
ENDCHAR
STARTCHAR afii10099
ENCODING 1106
SWIDTH 512 0
DWIDTH 8 0
BBX 8 15 0 -3
BITMAP
00
00
20
20
70
20
3C
22
22
22
22
22
02
0C
00
ENDCHAR
STARTCHAR afii10100
ENCODING 1107
SWIDTH 512 0
DWIDTH 8 0
BBX 8 15 0 -3
BITMAP
00
00
04
08
00
3E
20
20
20
20
20
20
00
00
00
ENDCHAR
STARTCHAR afii10101
ENCODING 1108
SWIDTH 512 0
DWIDTH 8 0
BBX 8 15 0 -3
BITMAP
00
00
00
00
00
3C
42
40
78
40
42
3C
00
00
00
ENDCHAR
STARTCHAR afii10102
ENCODING 1109
SWIDTH 512 0
DWIDTH 8 0
BBX 8 15 0 -3
BITMAP
00
00
00
00
00
3C
42
20
18
04
42
3C
00
00
00
ENDCHAR
STARTCHAR afii10103
ENCODING 1110
SWIDTH 512 0
DWIDTH 8 0
BBX 8 15 0 -3
BITMAP
00
00
08
08
00
18
08
08
08
08
08
3E
00
00
00
ENDCHAR
STARTCHAR afii10104
ENCODING 1111
SWIDTH 512 0
DWIDTH 8 0
BBX 8 15 0 -3
BITMAP
00
00
14
14
00
18
08
08
08
08
08
3E
00
00
00
ENDCHAR
STARTCHAR afii10105
ENCODING 1112
SWIDTH 512 0
DWIDTH 8 0
BBX 8 15 0 -3
BITMAP
00
00
02
02
00
06
02
02
02
02
02
22
22
1C
00
ENDCHAR
STARTCHAR afii10106
ENCODING 1113
SWIDTH 512 0
DWIDTH 8 0
BBX 8 15 0 -3
BITMAP
00
00
00
00
00
38
28
28
2C
2A
2A
4C
00
00
00
ENDCHAR
STARTCHAR afii10107
ENCODING 1114
SWIDTH 512 0
DWIDTH 8 0
BBX 8 15 0 -3
BITMAP
00
00
00
00
00
48
48
48
7C
4A
4A
4C
00
00
00
ENDCHAR
STARTCHAR afii10108
ENCODING 1115
SWIDTH 512 0
DWIDTH 8 0
BBX 8 15 0 -3
BITMAP
00
00
10
7C
10
1C
12
12
12
12
12
12
00
00
00
ENDCHAR
STARTCHAR afii10109
ENCODING 1116
SWIDTH 512 0
DWIDTH 8 0
BBX 8 15 0 -3
BITMAP
00
00
08
10
00
42
44
48
50
68
44
42
00
00
00
ENDCHAR
STARTCHAR uni045D
ENCODING 1117
SWIDTH 512 0
DWIDTH 8 0
BBX 8 15 0 -3
BITMAP
00
00
10
08
00
42
46
4A
52
62
42
42
00
00
00
ENDCHAR
STARTCHAR afii10110
ENCODING 1118
SWIDTH 512 0
DWIDTH 8 0
BBX 8 15 0 -3
BITMAP
00
00
42
3C
00
42
42
42
42
46
3A
02
42
3C
00
ENDCHAR
STARTCHAR afii10193
ENCODING 1119
SWIDTH 512 0
DWIDTH 8 0
BBX 8 15 0 -3
BITMAP
00
00
00
00
00
22
22
22
22
22
22
3E
08
00
00
ENDCHAR
STARTCHAR uni0460
ENCODING 1120
SWIDTH 512 0
DWIDTH 8 0
BBX 8 15 0 -3
BITMAP
00
00
14
22
22
22
22
22
2A
2A
2A
14
00
00
00
ENDCHAR
STARTCHAR uni0461
ENCODING 1121
SWIDTH 512 0
DWIDTH 8 0
BBX 8 15 0 -3
BITMAP
00
00
00
00
00
14
22
2A
2A
2A
2A
14
00
00
00
ENDCHAR
STARTCHAR afii10146
ENCODING 1122
SWIDTH 512 0
DWIDTH 8 0
BBX 8 15 0 -3
BITMAP
00
00
10
7C
10
10
1C
12
12
12
12
1C
00
00
00
ENDCHAR
STARTCHAR afii10194
ENCODING 1123
SWIDTH 512 0
DWIDTH 8 0
BBX 8 15 0 -3
BITMAP
00
00
00
10
10
7C
10
10
1C
12
12
1C
00
00
00
ENDCHAR
STARTCHAR uni0464
ENCODING 1124
SWIDTH 512 0
DWIDTH 8 0
BBX 8 15 0 -3
BITMAP
00
00
46
48
48
48
7C
48
48
48
48
46
00
00
00
ENDCHAR
STARTCHAR uni0465
ENCODING 1125
SWIDTH 512 0
DWIDTH 8 0
BBX 8 15 0 -3
BITMAP
00
00
00
00
00
46
48
48
7C
48
48
46
00
00
00
ENDCHAR
STARTCHAR uni0466
ENCODING 1126
SWIDTH 512 0
DWIDTH 8 0
BBX 8 15 0 -3
BITMAP
00
00
08
14
14
14
14
2A
2A
2A
2A
2A
00
00
00
ENDCHAR
STARTCHAR uni0467
ENCODING 1127
SWIDTH 512 0
DWIDTH 8 0
BBX 8 15 0 -3
BITMAP
00
00
00
00
00
08
14
14
14
2A
2A
2A
00
00
00
ENDCHAR
STARTCHAR uni0468
ENCODING 1128
SWIDTH 512 0
DWIDTH 8 0
BBX 8 15 0 -3
BITMAP
00
00
48
54
54
54
54
6A
6A
6A
6A
6A
00
00
00
ENDCHAR
STARTCHAR uni0469
ENCODING 1129
SWIDTH 512 0
DWIDTH 8 0
BBX 8 15 0 -3
BITMAP
00
00
00
00
00
48
54
54
54
6A
6A
6A
00
00
00
ENDCHAR
STARTCHAR uni046A
ENCODING 1130
SWIDTH 512 0
DWIDTH 8 0
BBX 8 15 0 -3
BITMAP
00
00
3E
22
22
14
08
1C
2A
2A
2A
2A
00
00
00
ENDCHAR
STARTCHAR uni046B
ENCODING 1131
SWIDTH 512 0
DWIDTH 8 0
BBX 8 15 0 -3
BITMAP
00
00
00
00
00
1C
14
14
1C
2A
2A
2A
00
00
00
ENDCHAR
STARTCHAR uni046C
ENCODING 1132
SWIDTH 512 0
DWIDTH 8 0
BBX 8 15 0 -3
BITMAP
00
00
7E
62
62
54
48
5C
6A
6A
6A
6A
00
00
00
ENDCHAR
STARTCHAR uni046D
ENCODING 1133
SWIDTH 512 0
DWIDTH 8 0
BBX 8 15 0 -3
BITMAP
00
00
00
00
00
5C
54
54
5C
6A
6A
6A
00
00
00
ENDCHAR
STARTCHAR uni046E
ENCODING 1134
SWIDTH 512 0
DWIDTH 8 0
BBX 8 15 0 -3
BITMAP
22
1C
00
3C
42
02
02
1C
02
02
02
3C
40
38
00
ENDCHAR
STARTCHAR uni046F
ENCODING 1135
SWIDTH 512 0
DWIDTH 8 0
BBX 8 15 0 -3
BITMAP
00
00
22
1C
00
3C
42
02
1C
02
02
3C
40
38
00
ENDCHAR
STARTCHAR uni0470
ENCODING 1136
SWIDTH 512 0
DWIDTH 8 0
BBX 8 15 0 -3
BITMAP
00
00
2A
2A
2A
2A
2A
2A
1C
08
08
08
00
00
00
ENDCHAR
STARTCHAR uni0471
ENCODING 1137
SWIDTH 512 0
DWIDTH 8 0
BBX 8 15 0 -3
BITMAP
00
00
00
00
00
2A
2A
2A
2A
2A
2A
1C
08
08
00
ENDCHAR
STARTCHAR afii10147
ENCODING 1138
SWIDTH 512 0
DWIDTH 8 0
BBX 8 15 0 -3
BITMAP
00
00
3C
42
42
42
7E
42
42
42
42
3C
00
00
00
ENDCHAR
STARTCHAR afii10195
ENCODING 1139
SWIDTH 512 0
DWIDTH 8 0
BBX 8 15 0 -3
BITMAP
00
00
00
00
00
3C
42
42
7E
42
42
3C
00
00
00
ENDCHAR
STARTCHAR afii10148
ENCODING 1140
SWIDTH 512 0
DWIDTH 8 0
BBX 8 15 0 -3
BITMAP
00
00
42
44
44
48
48
28
28
28
10
10
00
00
00
ENDCHAR
STARTCHAR afii10196
ENCODING 1141
SWIDTH 512 0
DWIDTH 8 0
BBX 8 15 0 -3
BITMAP
00
00
00
00
00
42
44
44
48
28
28
10
00
00
00
ENDCHAR
STARTCHAR uni0476
ENCODING 1142
SWIDTH 512 0
DWIDTH 8 0
BBX 8 15 0 -3
BITMAP
48
24
00
42
44
44
48
28
28
28
10
10
00
00
00
ENDCHAR
STARTCHAR uni0477
ENCODING 1143
SWIDTH 512 0
DWIDTH 8 0
BBX 8 15 0 -3
BITMAP
00
00
48
24
00
42
44
44
48
28
28
10
00
00
00
ENDCHAR
STARTCHAR uni0478
ENCODING 1144
SWIDTH 512 0
DWIDTH 8 0
BBX 8 15 0 -3
BITMAP
00
00
20
50
50
5A
5A
5A
5A
5A
5A
26
02
0C
00
ENDCHAR
STARTCHAR uni0479
ENCODING 1145
SWIDTH 512 0
DWIDTH 8 0
BBX 8 15 0 -3
BITMAP
00
00
00
00
00
2A
5A
5A
5A
5A
5A
26
02
0C
00
ENDCHAR
STARTCHAR uni047A
ENCODING 1146
SWIDTH 512 0
DWIDTH 8 0
BBX 8 15 0 -3
BITMAP
00
08
1C
2A
22
22
22
22
22
22
2A
1C
08
00
00
ENDCHAR
STARTCHAR uni047B
ENCODING 1147
SWIDTH 512 0
DWIDTH 8 0
BBX 8 15 0 -3
BITMAP
00
00
00
00
08
1C
2A
22
22
22
2A
1C
08
00
00
ENDCHAR
STARTCHAR uni047C
ENCODING 1148
SWIDTH 512 0
DWIDTH 8 0
BBX 8 15 0 -3
BITMAP
02
3E
20
00
14
22
22
22
2A
2A
2A
14
00
00
00
ENDCHAR
STARTCHAR uni047D
ENCODING 1149
SWIDTH 512 0
DWIDTH 8 0
BBX 8 15 0 -3
BITMAP
00
02
3E
20
00
14
22
2A
2A
2A
2A
14
00
00
00
ENDCHAR
STARTCHAR uni047E
ENCODING 1150
SWIDTH 512 0
DWIDTH 8 0
BBX 8 15 0 -3
BITMAP
3E
08
00
14
22
22
22
22
2A
2A
2A
14
00
00
00
ENDCHAR
STARTCHAR uni047F
ENCODING 1151
SWIDTH 512 0
DWIDTH 8 0
BBX 8 15 0 -3
BITMAP
00
00
3E
08
00
22
22
2A
2A
2A
2A
14
00
00
00
ENDCHAR
STARTCHAR uni0480
ENCODING 1152
SWIDTH 512 0
DWIDTH 8 0
BBX 8 15 0 -3
BITMAP
00
00
3C
42
42
42
40
40
40
40
40
3C
04
0E
00
ENDCHAR
STARTCHAR uni0481
ENCODING 1153
SWIDTH 512 0
DWIDTH 8 0
BBX 8 15 0 -3
BITMAP
00
00
00
00
00
3C
42
40
40
40
3C
04
04
00
00
ENDCHAR
STARTCHAR uni0482
ENCODING 1154
SWIDTH 512 0
DWIDTH 8 0
BBX 8 15 0 -3
BITMAP
00
00
00
00
0A
04
2A
10
28
00
00
00
00
00
00
ENDCHAR
STARTCHAR uni0483
ENCODING 1155
SWIDTH 512 0
DWIDTH 8 0
BBX 8 15 0 -3
BITMAP
00
00
06
3E
30
00
00
00
00
00
00
00
00
00
00
ENDCHAR
STARTCHAR uni0484
ENCODING 1156
SWIDTH 512 0
DWIDTH 8 0
BBX 8 15 0 -3
BITMAP
00
00
00
1C
32
00
00
00
00
00
00
00
00
00
00
ENDCHAR
STARTCHAR uni0485
ENCODING 1157
SWIDTH 512 0
DWIDTH 8 0
BBX 8 15 0 -3
BITMAP
00
00
20
3C
20
00
00
00
00
00
00
00
00
00
00
ENDCHAR
STARTCHAR uni0486
ENCODING 1158
SWIDTH 512 0
DWIDTH 8 0
BBX 8 15 0 -3
BITMAP
00
00
04
3C
04
00
00
00
00
00
00
00
00
00
00
ENDCHAR
STARTCHAR uni0488
ENCODING 1160
SWIDTH 512 0
DWIDTH 8 0
BBX 8 15 0 -3
BITMAP
00
00
08
08
63
41
00
63
00
41
63
08
08
00
00
ENDCHAR
STARTCHAR uni0489
ENCODING 1161
SWIDTH 512 0
DWIDTH 8 0
BBX 8 15 0 -3
BITMAP
08
18
00
22
66
00
22
66
00
22
66
08
18
00
00
ENDCHAR
STARTCHAR uni048A
ENCODING 1162
SWIDTH 512 0
DWIDTH 8 0
BBX 8 15 0 -3
BITMAP
42
3C
00
42
46
46
4A
52
62
62
42
43
01
02
00
ENDCHAR
STARTCHAR uni048B
ENCODING 1163
SWIDTH 512 0
DWIDTH 8 0
BBX 8 15 0 -3
BITMAP
00
00
42
3C
00
42
46
4A
52
62
42
43
01
02
00
ENDCHAR
STARTCHAR uni048C
ENCODING 1164
SWIDTH 512 0
DWIDTH 8 0
BBX 8 15 0 -3
BITMAP
00
00
20
78
20
20
3C
22
22
22
22
3C
00
00
00
ENDCHAR
STARTCHAR uni048D
ENCODING 1165
SWIDTH 512 0
DWIDTH 8 0
BBX 8 15 0 -3
BITMAP
00
00
00
00
00
20
78
20
3C
22
22
3C
00
00
00
ENDCHAR
STARTCHAR uni048E
ENCODING 1166
SWIDTH 512 0
DWIDTH 8 0
BBX 8 15 0 -3
BITMAP
00
00
7C
42
42
4A
44
7A
40
40
40
40
00
00
00
ENDCHAR
STARTCHAR uni048F
ENCODING 1167
SWIDTH 512 0
DWIDTH 8 0
BBX 8 15 0 -3
BITMAP
00
00
00
00
00
7C
42
42
4A
44
7A
40
40
40
00
ENDCHAR
STARTCHAR afii10050
ENCODING 1168
SWIDTH 512 0
DWIDTH 8 0
BBX 8 15 0 -3
BITMAP
00
02
7E
40
40
40
40
40
40
40
40
40
00
00
00
ENDCHAR
STARTCHAR afii10098
ENCODING 1169
SWIDTH 512 0
DWIDTH 8 0
BBX 8 15 0 -3
BITMAP
00
00
00
00
02
3E
20
20
20
20
20
20
00
00
00
ENDCHAR
STARTCHAR uni0492
ENCODING 1170
SWIDTH 512 0
DWIDTH 8 0
BBX 8 15 0 -3
BITMAP
00
00
3E
22
20
20
70
20
20
20
20
20
00
00
00
ENDCHAR
STARTCHAR uni0493
ENCODING 1171
SWIDTH 512 0
DWIDTH 8 0
BBX 8 15 0 -3
BITMAP
00
00
00
00
00
3E
22
20
70
20
20
20
00
00
00
ENDCHAR
STARTCHAR uni0494
ENCODING 1172
SWIDTH 512 0
DWIDTH 8 0
BBX 8 15 0 -3
BITMAP
00
00
7E
40
40
40
70
48
44
44
44
44
08
00
00
ENDCHAR
STARTCHAR uni0495
ENCODING 1173
SWIDTH 512 0
DWIDTH 8 0
BBX 8 15 0 -3
BITMAP
00
00
00
00
00
3E
20
20
38
24
24
24
08
10
00
ENDCHAR
STARTCHAR uni0496
ENCODING 1174
SWIDTH 512 0
DWIDTH 8 0
BBX 8 15 0 -3
BITMAP
00
00
54
54
54
54
38
54
54
54
54
56
02
02
00
ENDCHAR
STARTCHAR uni0497
ENCODING 1175
SWIDTH 512 0
DWIDTH 8 0
BBX 8 15 0 -3
BITMAP
00
00
00
00
00
54
54
54
38
54
54
56
02
02
00
ENDCHAR
STARTCHAR uni0498
ENCODING 1176
SWIDTH 512 0
DWIDTH 8 0
BBX 8 15 0 -3
BITMAP
00
00
38
44
02
04
18
04
02
42
44
38
10
20
00
ENDCHAR
STARTCHAR uni0499
ENCODING 1177
SWIDTH 512 0
DWIDTH 8 0
BBX 8 15 0 -3
BITMAP
00
00
00
00
00
3C
42
02
0C
02
42
3C
08
10
00
ENDCHAR
STARTCHAR uni049A
ENCODING 1178
SWIDTH 512 0
DWIDTH 8 0
BBX 8 15 0 -3
BITMAP
00
00
42
44
48
50
60
50
48
44
42
43
01
01
00
ENDCHAR
STARTCHAR uni049B
ENCODING 1179
SWIDTH 512 0
DWIDTH 8 0
BBX 8 15 0 -3
BITMAP
00
00
00
00
00
42
44
48
50
68
44
43
01
01
00
ENDCHAR
STARTCHAR uni049C
ENCODING 1180
SWIDTH 512 0
DWIDTH 8 0
BBX 8 15 0 -3
BITMAP
00
00
42
44
48
50
78
50
48
44
42
42
00
00
00
ENDCHAR
STARTCHAR uni049D
ENCODING 1181
SWIDTH 512 0
DWIDTH 8 0
BBX 8 15 0 -3
BITMAP
00
00
00
00
00
44
48
50
58
70
48
44
00
00
00
ENDCHAR
STARTCHAR uni049E
ENCODING 1182
SWIDTH 512 0
DWIDTH 8 0
BBX 8 15 0 -3
BITMAP
00
00
20
72
24
28
30
28
24
22
22
22
00
00
00
ENDCHAR
STARTCHAR uni049F
ENCODING 1183
SWIDTH 512 0
DWIDTH 8 0
BBX 8 15 0 -3
BITMAP
00
00
00
00
00
20
72
24
28
34
22
22
00
00
00
ENDCHAR
STARTCHAR uni04A0
ENCODING 1184
SWIDTH 512 0
DWIDTH 8 0
BBX 8 15 0 -3
BITMAP
00
00
72
14
14
18
10
18
14
14
12
12
00
00
00
ENDCHAR
STARTCHAR uni04A1
ENCODING 1185
SWIDTH 512 0
DWIDTH 8 0
BBX 8 15 0 -3
BITMAP
00
00
00
00
00
72
14
18
10
18
14
12
00
00
00
ENDCHAR
STARTCHAR uni04A2
ENCODING 1186
SWIDTH 512 0
DWIDTH 8 0
BBX 8 15 0 -3
BITMAP
00
00
44
44
44
44
7C
44
44
44
44
46
02
02
00
ENDCHAR
STARTCHAR uni04A3
ENCODING 1187
SWIDTH 512 0
DWIDTH 8 0
BBX 8 15 0 -3
BITMAP
00
00
00
00
00
44
44
44
7C
44
44
46
02
02
00
ENDCHAR
STARTCHAR uni04A4
ENCODING 1188
SWIDTH 512 0
DWIDTH 8 0
BBX 8 15 0 -3
BITMAP
00
00
4E
48
48
48
78
48
48
48
48
48
00
00
00
ENDCHAR
STARTCHAR uni04A5
ENCODING 1189
SWIDTH 512 0
DWIDTH 8 0
BBX 8 15 0 -3
BITMAP
00
00
00
00
00
4E
48
48
78
48
48
48
00
00
00
ENDCHAR
STARTCHAR uni04A6
ENCODING 1190
SWIDTH 512 0
DWIDTH 8 0
BBX 8 15 0 -3
BITMAP
00
00
78
48
48
48
4C
4A
4A
4A
4A
4A
02
0C
00
ENDCHAR
STARTCHAR uni04A7
ENCODING 1191
SWIDTH 512 0
DWIDTH 8 0
BBX 8 15 0 -3
BITMAP
00
00
00
00
00
78
48
48
4C
4A
4A
4A
02
0C
00
ENDCHAR
STARTCHAR uni04A8
ENCODING 1192
SWIDTH 512 0
DWIDTH 8 0
BBX 8 15 0 -3
BITMAP
00
00
18
24
20
44
4A
4A
4A
4A
2A
1C
02
00
00
ENDCHAR
STARTCHAR uni04A9
ENCODING 1193
SWIDTH 512 0
DWIDTH 8 0
BBX 8 15 0 -3
BITMAP
00
00
00
00
00
18
24
40
44
4A
2C
1C
02
00
00
ENDCHAR
STARTCHAR uni04AA
ENCODING 1194
SWIDTH 512 0
DWIDTH 8 0
BBX 8 15 0 -3
BITMAP
00
00
3C
42
42
40
40
40
40
42
42
3C
08
10
00
ENDCHAR
STARTCHAR uni04AB
ENCODING 1195
SWIDTH 512 0
DWIDTH 8 0
BBX 8 15 0 -3
BITMAP
00
00
00
00
00
3C
42
40
40
40
42
3C
08
10
00
ENDCHAR
STARTCHAR uni04AC
ENCODING 1196
SWIDTH 512 0
DWIDTH 8 0
BBX 8 15 0 -3
BITMAP
00
00
7F
08
08
08
08
08
08
08
08
1C
04
04
00
ENDCHAR
STARTCHAR uni04AD
ENCODING 1197
SWIDTH 512 0
DWIDTH 8 0
BBX 8 15 0 -3
BITMAP
00
00
00
00
00
3E
2A
08
08
08
08
0C
04
04
00
ENDCHAR
STARTCHAR uni04AE
ENCODING 1198
SWIDTH 512 0
DWIDTH 8 0
BBX 8 15 0 -3
BITMAP
00
00
22
22
22
14
14
08
08
08
08
08
00
00
00
ENDCHAR
STARTCHAR uni04AF
ENCODING 1199
SWIDTH 512 0
DWIDTH 8 0
BBX 8 15 0 -3
BITMAP
00
00
00
00
00
22
22
22
14
14
08
08
08
08
00
ENDCHAR
STARTCHAR uni04B0
ENCODING 1200
SWIDTH 512 0
DWIDTH 8 0
BBX 8 15 0 -3
BITMAP
00
00
22
22
22
14
14
3E
08
08
08
08
00
00
00
ENDCHAR
STARTCHAR uni04B1
ENCODING 1201
SWIDTH 512 0
DWIDTH 8 0
BBX 8 15 0 -3
BITMAP
00
00
00
00
00
22
22
22
14
14
3E
08
08
08
00
ENDCHAR
STARTCHAR uni04B2
ENCODING 1202
SWIDTH 512 0
DWIDTH 8 0
BBX 8 15 0 -3
BITMAP
00
00
42
42
24
24
18
18
24
24
42
43
01
01
00
ENDCHAR
STARTCHAR uni04B3
ENCODING 1203
SWIDTH 512 0
DWIDTH 8 0
BBX 8 15 0 -3
BITMAP
00
00
00
00
00
42
42
24
18
24
42
43
01
01
00
ENDCHAR
STARTCHAR uni04B4
ENCODING 1204
SWIDTH 512 0
DWIDTH 8 0
BBX 8 15 0 -3
BITMAP
00
00
72
22
22
22
22
22
22
22
22
3E
02
02
00
ENDCHAR
STARTCHAR uni04B5
ENCODING 1205
SWIDTH 512 0
DWIDTH 8 0
BBX 8 15 0 -3
BITMAP
00
00
00
00
00
72
22
22
22
22
22
3E
02
02
00
ENDCHAR
STARTCHAR uni04B6
ENCODING 1206
SWIDTH 512 0
DWIDTH 8 0
BBX 8 15 0 -3
BITMAP
00
00
42
42
42
42
3E
02
02
02
02
07
01
01
00
ENDCHAR
STARTCHAR uni04B7
ENCODING 1207
SWIDTH 512 0
DWIDTH 8 0
BBX 8 15 0 -3
BITMAP
00
00
00
00
00
42
42
42
3E
02
02
03
01
01
00
ENDCHAR
STARTCHAR uni04B8
ENCODING 1208
SWIDTH 512 0
DWIDTH 8 0
BBX 8 15 0 -3
BITMAP
00
00
42
42
52
52
3E
12
12
02
02
02
00
00
00
ENDCHAR
STARTCHAR uni04B9
ENCODING 1209
SWIDTH 512 0
DWIDTH 8 0
BBX 8 15 0 -3
BITMAP
00
00
00
00
00
42
42
52
3E
12
02
02
00
00
00
ENDCHAR
STARTCHAR uni04BA
ENCODING 1210
SWIDTH 512 0
DWIDTH 8 0
BBX 8 15 0 -3
BITMAP
00
00
40
40
40
5C
62
42
42
42
42
42
00
00
00
ENDCHAR
STARTCHAR uni04BB
ENCODING 1211
SWIDTH 512 0
DWIDTH 8 0
BBX 8 15 0 -3
BITMAP
00
00
20
20
20
20
2C
32
22
22
22
22
00
00
00
ENDCHAR
STARTCHAR uni04BC
ENCODING 1212
SWIDTH 512 0
DWIDTH 8 0
BBX 8 15 0 -3
BITMAP
00
00
00
5E
61
21
21
3F
20
20
21
1E
00
00
00
ENDCHAR
STARTCHAR uni04BD
ENCODING 1213
SWIDTH 512 0
DWIDTH 8 0
BBX 8 15 0 -3
BITMAP
00
00
00
00
00
5C
62
22
3E
20
22
1C
00
00
00
ENDCHAR
STARTCHAR uni04BE
ENCODING 1214
SWIDTH 512 0
DWIDTH 8 0
BBX 8 15 0 -3
BITMAP
00
00
00
5E
61
21
21
3F
20
20
21
1E
08
0C
00
ENDCHAR
STARTCHAR uni04BF
ENCODING 1215
SWIDTH 512 0
DWIDTH 8 0
BBX 8 15 0 -3
BITMAP
00
00
00
00
00
5C
62
22
3E
20
22
1C
10
18
00
ENDCHAR
STARTCHAR uni04C0
ENCODING 1216
SWIDTH 512 0
DWIDTH 8 0
BBX 8 15 0 -3
BITMAP
00
00
1C
08
08
08
08
08
08
08
08
1C
00
00
00
ENDCHAR
STARTCHAR uni04C1
ENCODING 1217
SWIDTH 512 0
DWIDTH 8 0
BBX 8 15 0 -3
BITMAP
22
1C
00
2A
2A
2A
2A
1C
2A
2A
2A
2A
00
00
00
ENDCHAR
STARTCHAR uni04C2
ENCODING 1218
SWIDTH 512 0
DWIDTH 8 0
BBX 8 15 0 -3
BITMAP
00
00
22
1C
00
2A
2A
2A
1C
2A
2A
2A
00
00
00
ENDCHAR
STARTCHAR uni04C3
ENCODING 1219
SWIDTH 512 0
DWIDTH 8 0
BBX 8 15 0 -3
BITMAP
00
00
42
44
48
50
70
48
44
42
42
42
04
38
00
ENDCHAR
STARTCHAR uni04C4
ENCODING 1220
SWIDTH 512 0
DWIDTH 8 0
BBX 8 15 0 -3
BITMAP
00
00
00
00
00
42
44
48
58
64
42
42
12
0C
00
ENDCHAR
STARTCHAR uni04C5
ENCODING 1221
SWIDTH 512 0
DWIDTH 8 0
BBX 8 15 0 -3
BITMAP
00
00
1E
12
12
12
12
12
12
12
52
27
01
02
00
ENDCHAR
STARTCHAR uni04C6
ENCODING 1222
SWIDTH 512 0
DWIDTH 8 0
BBX 8 15 0 -3
BITMAP
00
00
00
00
00
1E
12
12
12
12
12
67
01
02
00
ENDCHAR
STARTCHAR uni04C7
ENCODING 1223
SWIDTH 512 0
DWIDTH 8 0
BBX 8 15 0 -3
BITMAP
00
00
42
42
42
42
7E
42
42
42
42
42
02
1C
00
ENDCHAR
STARTCHAR uni04C8
ENCODING 1224
SWIDTH 512 0
DWIDTH 8 0
BBX 8 15 0 -3
BITMAP
00
00
00
00
00
42
42
42
7E
42
42
42
02
1C
00
ENDCHAR
STARTCHAR uni04C9
ENCODING 1225
SWIDTH 512 0
DWIDTH 8 0
BBX 8 15 0 -3
BITMAP
00
00
42
42
42
42
7E
42
42
42
42
47
01
02
00
ENDCHAR
STARTCHAR uni04CA
ENCODING 1226
SWIDTH 512 0
DWIDTH 8 0
BBX 8 15 0 -3
BITMAP
00
00
00
00
00
42
42
42
7E
42
42
47
01
02
00
ENDCHAR
STARTCHAR uni04CB
ENCODING 1227
SWIDTH 512 0
DWIDTH 8 0
BBX 8 15 0 -3
BITMAP
00
00
42
42
42
42
46
3A
02
02
02
06
04
04
00
ENDCHAR
STARTCHAR uni04CC
ENCODING 1228
SWIDTH 512 0
DWIDTH 8 0
BBX 8 15 0 -3
BITMAP
00
00
00
00
00
42
42
46
3A
02
02
06
04
04
00
ENDCHAR
STARTCHAR uni04CD
ENCODING 1229
SWIDTH 512 0
DWIDTH 8 0
BBX 8 15 0 -3
BITMAP
00
00
42
66
66
5A
5A
42
42
42
42
47
01
02
00
ENDCHAR
STARTCHAR uni04CE
ENCODING 1230
SWIDTH 512 0
DWIDTH 8 0
BBX 8 15 0 -3
BITMAP
00
00
00
00
00
42
66
66
5A
5A
42
47
01
02
00
ENDCHAR
STARTCHAR uni04D0
ENCODING 1232
SWIDTH 512 0
DWIDTH 8 0
BBX 8 15 0 -3
BITMAP
42
3C
00
18
24
42
42
7E
42
42
42
42
00
00
00
ENDCHAR
STARTCHAR uni04D1
ENCODING 1233
SWIDTH 512 0
DWIDTH 8 0
BBX 8 15 0 -3
BITMAP
00
00
42
3C
00
3C
42
02
3E
42
42
3E
00
00
00
ENDCHAR
STARTCHAR uni04D2
ENCODING 1234
SWIDTH 512 0
DWIDTH 8 0
BBX 8 15 0 -3
BITMAP
24
24
00
18
24
42
42
7E
42
42
42
42
00
00
00
ENDCHAR
STARTCHAR uni04D3
ENCODING 1235
SWIDTH 512 0
DWIDTH 8 0
BBX 8 15 0 -3
BITMAP
00
00
24
24
00
3C
42
02
3E
42
42
3E
00
00
00
ENDCHAR
STARTCHAR uni04D4
ENCODING 1236
SWIDTH 512 0
DWIDTH 8 0
BBX 8 15 0 -3
BITMAP
00
00
36
48
48
48
4E
78
48
48
48
4E
00
00
00
ENDCHAR
STARTCHAR uni04D5
ENCODING 1237
SWIDTH 512 0
DWIDTH 8 0
BBX 8 15 0 -3
BITMAP
00
00
00
00
00
3C
0A
0A
3C
48
4A
34
00
00
00
ENDCHAR
STARTCHAR uni04D6
ENCODING 1238
SWIDTH 512 0
DWIDTH 8 0
BBX 8 15 0 -3
BITMAP
42
3C
00
7E
40
40
40
78
40
40
40
7E
00
00
00
ENDCHAR
STARTCHAR uni04D7
ENCODING 1239
SWIDTH 512 0
DWIDTH 8 0
BBX 8 15 0 -3
BITMAP
00
00
42
3C
00
3C
42
42
7E
40
42
3C
00
00
00
ENDCHAR
STARTCHAR uni04D8
ENCODING 1240
SWIDTH 512 0
DWIDTH 8 0
BBX 8 15 0 -3
BITMAP
00
00
3C
42
02
02
7E
42
42
42
42
3C
00
00
00
ENDCHAR
STARTCHAR afii10846
ENCODING 1241
SWIDTH 512 0
DWIDTH 8 0
BBX 8 15 0 -3
BITMAP
00
00
00
00
00
3C
42
02
7E
42
42
3C
00
00
00
ENDCHAR
STARTCHAR uni04DA
ENCODING 1242
SWIDTH 512 0
DWIDTH 8 0
BBX 8 15 0 -3
BITMAP
24
24
00
3C
42
02
02
7E
42
42
42
3C
00
00
00
ENDCHAR
STARTCHAR uni04DB
ENCODING 1243
SWIDTH 512 0
DWIDTH 8 0
BBX 8 15 0 -3
BITMAP
00
00
24
24
00
3C
42
02
7E
42
42
3C
00
00
00
ENDCHAR
STARTCHAR uni04DC
ENCODING 1244
SWIDTH 512 0
DWIDTH 8 0
BBX 8 15 0 -3
BITMAP
14
14
00
2A
2A
2A
2A
1C
2A
2A
2A
2A
00
00
00
ENDCHAR
STARTCHAR uni04DD
ENCODING 1245
SWIDTH 512 0
DWIDTH 8 0
BBX 8 15 0 -3
BITMAP
00
00
14
14
00
2A
2A
2A
1C
2A
2A
2A
00
00
00
ENDCHAR
STARTCHAR uni04DE
ENCODING 1246
SWIDTH 512 0
DWIDTH 8 0
BBX 8 15 0 -3
BITMAP
24
24
00
3C
42
02
02
1C
02
02
42
3C
00
00
00
ENDCHAR
STARTCHAR uni04DF
ENCODING 1247
SWIDTH 512 0
DWIDTH 8 0
BBX 8 15 0 -3
BITMAP
00
00
24
24
00
3C
42
02
0C
02
42
3C
00
00
00
ENDCHAR
STARTCHAR uni04E0
ENCODING 1248
SWIDTH 512 0
DWIDTH 8 0
BBX 8 15 0 -3
BITMAP
00
00
7E
02
04
08
1C
02
02
02
42
3C
00
00
00
ENDCHAR
STARTCHAR uni04E1
ENCODING 1249
SWIDTH 512 0
DWIDTH 8 0
BBX 8 15 0 -3
BITMAP
00
00
00
00
00
7E
02
04
08
1C
02
02
42
3C
00
ENDCHAR
STARTCHAR uni04E2
ENCODING 1250
SWIDTH 512 0
DWIDTH 8 0
BBX 8 15 0 -3
BITMAP
00
7E
00
42
46
46
4A
52
62
62
42
42
00
00
00
ENDCHAR
STARTCHAR uni04E3
ENCODING 1251
SWIDTH 512 0
DWIDTH 8 0
BBX 8 15 0 -3
BITMAP
00
00
00
7E
00
42
46
4A
52
62
42
42
00
00
00
ENDCHAR
STARTCHAR uni04E4
ENCODING 1252
SWIDTH 512 0
DWIDTH 8 0
BBX 8 15 0 -3
BITMAP
24
24
00
42
46
46
4A
52
62
62
42
42
00
00
00
ENDCHAR
STARTCHAR uni04E5
ENCODING 1253
SWIDTH 512 0
DWIDTH 8 0
BBX 8 15 0 -3
BITMAP
00
00
24
24
00
42
46
4A
52
62
42
42
00
00
00
ENDCHAR
STARTCHAR uni04E6
ENCODING 1254
SWIDTH 512 0
DWIDTH 8 0
BBX 8 15 0 -3
BITMAP
24
24
00
3C
42
42
42
42
42
42
42
3C
00
00
00
ENDCHAR
STARTCHAR uni04E7
ENCODING 1255
SWIDTH 512 0
DWIDTH 8 0
BBX 8 15 0 -3
BITMAP
00
00
24
24
00
3C
42
42
42
42
42
3C
00
00
00
ENDCHAR
STARTCHAR uni04E8
ENCODING 1256
SWIDTH 512 0
DWIDTH 8 0
BBX 8 15 0 -3
BITMAP
00
00
3C
42
42
42
7E
42
42
42
42
3C
00
00
00
ENDCHAR
STARTCHAR uni04E9
ENCODING 1257
SWIDTH 512 0
DWIDTH 8 0
BBX 8 15 0 -3
BITMAP
00
00
00
00
00
3C
42
42
7E
42
42
3C
00
00
00
ENDCHAR
STARTCHAR uni04EA
ENCODING 1258
SWIDTH 512 0
DWIDTH 8 0
BBX 8 15 0 -3
BITMAP
24
24
00
3C
42
42
42
7E
42
42
42
3C
00
00
00
ENDCHAR
STARTCHAR uni04EB
ENCODING 1259
SWIDTH 512 0
DWIDTH 8 0
BBX 8 15 0 -3
BITMAP
00
00
24
24
00
3C
42
42
7E
42
42
3C
00
00
00
ENDCHAR
STARTCHAR uni04EC
ENCODING 1260
SWIDTH 512 0
DWIDTH 8 0
BBX 8 15 0 -3
BITMAP
28
28
00
78
04
02
02
3E
02
02
04
78
00
00
00
ENDCHAR
STARTCHAR uni04ED
ENCODING 1261
SWIDTH 512 0
DWIDTH 8 0
BBX 8 15 0 -3
BITMAP
00
00
24
24
00
3C
02
02
0E
02
02
3C
00
00
00
ENDCHAR
STARTCHAR uni04EE
ENCODING 1262
SWIDTH 512 0
DWIDTH 8 0
BBX 8 15 0 -3
BITMAP
00
7E
00
42
42
42
42
46
3A
02
42
3C
00
00
00
ENDCHAR
STARTCHAR uni04EF
ENCODING 1263
SWIDTH 512 0
DWIDTH 8 0
BBX 8 15 0 -3
BITMAP
00
00
00
7E
00
42
42
42
42
46
3A
02
42
3C
00
ENDCHAR
STARTCHAR uni04F0
ENCODING 1264
SWIDTH 512 0
DWIDTH 8 0
BBX 8 15 0 -3
BITMAP
24
24
00
42
42
42
42
46
3A
02
42
3C
00
00
00
ENDCHAR
STARTCHAR uni04F1
ENCODING 1265
SWIDTH 512 0
DWIDTH 8 0
BBX 8 15 0 -3
BITMAP
00
00
24
24
00
42
42
42
42
46
3A
02
42
3C
00
ENDCHAR
STARTCHAR uni04F2
ENCODING 1266
SWIDTH 512 0
DWIDTH 8 0
BBX 8 15 0 -3
BITMAP
12
24
00
42
42
42
42
46
3A
02
42
3C
00
00
00
ENDCHAR
STARTCHAR uni04F3
ENCODING 1267
SWIDTH 512 0
DWIDTH 8 0
BBX 8 15 0 -3
BITMAP
00
00
12
24
00
42
42
42
42
46
3A
02
42
3C
00
ENDCHAR
STARTCHAR uni04F4
ENCODING 1268
SWIDTH 512 0
DWIDTH 8 0
BBX 8 15 0 -3
BITMAP
24
24
00
42
42
42
46
3A
02
02
02
02
00
00
00
ENDCHAR
STARTCHAR uni04F5
ENCODING 1269
SWIDTH 512 0
DWIDTH 8 0
BBX 8 15 0 -3
BITMAP
00
00
24
24
00
42
42
46
3A
02
02
02
00
00
00
ENDCHAR
STARTCHAR uni04F8
ENCODING 1272
SWIDTH 512 0
DWIDTH 8 0
BBX 8 15 0 -3
BITMAP
24
24
00
42
42
42
72
4A
4A
4A
4A
72
00
00
00
ENDCHAR
STARTCHAR uni04F9
ENCODING 1273
SWIDTH 512 0
DWIDTH 8 0
BBX 8 15 0 -3
BITMAP
00
00
24
24
00
42
42
42
72
4A
4A
72
00
00
00
ENDCHAR
STARTCHAR uni0500
ENCODING 1280
SWIDTH 512 0
DWIDTH 8 0
BBX 8 15 0 -3
BITMAP
00
00
02
02
02
3E
42
42
42
42
42
3F
00
00
00
ENDCHAR
STARTCHAR uni0501
ENCODING 1281
SWIDTH 512 0
DWIDTH 8 0
BBX 8 15 0 -3
BITMAP
00
00
02
02
02
1A
26
22
22
22
26
1A
00
00
00
ENDCHAR
STARTCHAR uni0502
ENCODING 1282
SWIDTH 512 0
DWIDTH 8 0
BBX 8 15 0 -3
BITMAP
00
00
04
04
04
3C
44
44
45
45
45
3B
00
00
00
ENDCHAR
STARTCHAR uni0503
ENCODING 1283
SWIDTH 512 0
DWIDTH 8 0
BBX 8 15 0 -3
BITMAP
00
00
04
04
04
14
2C
24
25
25
2D
17
00
00
00
ENDCHAR
STARTCHAR uni0504
ENCODING 1284
SWIDTH 512 0
DWIDTH 8 0
BBX 8 15 0 -3
BITMAP
00
00
30
48
04
08
10
08
05
05
05
02
00
00
00
ENDCHAR
STARTCHAR uni0505
ENCODING 1285
SWIDTH 512 0
DWIDTH 8 0
BBX 8 15 0 -3
BITMAP
00
00
00
00
00
38
44
04
18
05
05
02
00
00
00
ENDCHAR
STARTCHAR uni0506
ENCODING 1286
SWIDTH 512 0
DWIDTH 8 0
BBX 8 15 0 -3
BITMAP
00
00
30
48
04
08
10
08
04
04
04
03
01
01
00
ENDCHAR
STARTCHAR uni0507
ENCODING 1287
SWIDTH 512 0
DWIDTH 8 0
BBX 8 15 0 -3
BITMAP
00
00
00
00
00
38
44
04
18
04
04
03
01
01
00
ENDCHAR
STARTCHAR uni0508
ENCODING 1288
SWIDTH 512 0
DWIDTH 8 0
BBX 8 15 0 -3
BITMAP
00
00
1C
14
14
14
14
15
15
15
55
27
00
00
00
ENDCHAR
STARTCHAR uni0509
ENCODING 1289
SWIDTH 512 0
DWIDTH 8 0
BBX 8 15 0 -3
BITMAP
00
00
00
00
00
1C
14
14
15
15
15
67
00
00
00
ENDCHAR
STARTCHAR uni050A
ENCODING 1290
SWIDTH 512 0
DWIDTH 8 0
BBX 8 15 0 -3
BITMAP
00
00
44
44
44
44
7C
45
45
45
45
47
00
00
00
ENDCHAR
STARTCHAR uni050B
ENCODING 1291
SWIDTH 512 0
DWIDTH 8 0
BBX 8 15 0 -3
BITMAP
00
00
00
00
00
44
44
44
7D
45
45
47
00
00
00
ENDCHAR
STARTCHAR uni050C
ENCODING 1292
SWIDTH 512 0
DWIDTH 8 0
BBX 8 15 0 -3
BITMAP
00
00
3C
42
42
40
40
4E
42
42
42
3C
00
00
00
ENDCHAR
STARTCHAR uni050D
ENCODING 1293
SWIDTH 512 0
DWIDTH 8 0
BBX 8 15 0 -3
BITMAP
00
00
00
00
00
3E
46
40
4E
42
42
3C
00
00
00
ENDCHAR
STARTCHAR uni050E
ENCODING 1294
SWIDTH 512 0
DWIDTH 8 0
BBX 8 15 0 -3
BITMAP
00
00
3E
08
08
08
08
0A
0A
0A
0A
0E
00
00
00
ENDCHAR
STARTCHAR uni050F
ENCODING 1295
SWIDTH 512 0
DWIDTH 8 0
BBX 8 15 0 -3
BITMAP
00
00
00
00
00
3E
08
08
0A
0A
0A
0E
00
00
00
ENDCHAR
STARTCHAR uni0531
ENCODING 1329
SWIDTH 512 0
DWIDTH 8 0
BBX 8 15 0 -3
BITMAP
00
00
00
48
48
48
48
48
48
5C
4A
32
00
00
00
ENDCHAR
STARTCHAR uni0532
ENCODING 1330
SWIDTH 512 0
DWIDTH 8 0
BBX 8 15 0 -3
BITMAP
00
00
3C
42
42
40
40
7C
42
40
40
40
00
00
00
ENDCHAR
STARTCHAR uni0533
ENCODING 1331
SWIDTH 512 0
DWIDTH 8 0
BBX 8 15 0 -3
BITMAP
00
00
38
44
44
44
44
3E
04
04
04
04
00
00
00
ENDCHAR
STARTCHAR uni0534
ENCODING 1332
SWIDTH 512 0
DWIDTH 8 0
BBX 8 15 0 -3
BITMAP
00
00
38
44
44
44
06
04
04
04
04
04
00
00
00
ENDCHAR
STARTCHAR uni0535
ENCODING 1333
SWIDTH 512 0
DWIDTH 8 0
BBX 8 15 0 -3
BITMAP
00
00
40
40
40
7C
42
40
40
42
42
3C
00
00
00
ENDCHAR
STARTCHAR uni0536
ENCODING 1334
SWIDTH 512 0
DWIDTH 8 0
BBX 8 15 0 -3
BITMAP
00
00
3C
42
42
42
42
3C
04
08
7C
42
00
00
00
ENDCHAR
STARTCHAR uni0537
ENCODING 1335
SWIDTH 512 0
DWIDTH 8 0
BBX 8 15 0 -3
BITMAP
00
00
40
40
40
40
7C
42
40
40
40
7C
02
00
00
ENDCHAR
STARTCHAR uni0538
ENCODING 1336
SWIDTH 512 0
DWIDTH 8 0
BBX 8 15 0 -3
BITMAP
00
00
3C
42
42
42
40
40
40
40
40
7C
02
00
00
ENDCHAR
STARTCHAR uni0539
ENCODING 1337
SWIDTH 512 0
DWIDTH 8 0
BBX 8 15 0 -3
BITMAP
00
00
3C
42
42
42
4E
52
52
52
52
4C
00
00
00
ENDCHAR
STARTCHAR uni053A
ENCODING 1338
SWIDTH 512 0
DWIDTH 8 0
BBX 8 15 0 -3
BITMAP
00
00
02
02
02
3E
42
42
42
42
42
3C
00
00
00
ENDCHAR
STARTCHAR uni053B
ENCODING 1339
SWIDTH 512 0
DWIDTH 8 0
BBX 8 15 0 -3
BITMAP
00
00
40
40
40
40
7C
42
42
40
40
40
00
00
00
ENDCHAR
STARTCHAR uni053C
ENCODING 1340
SWIDTH 512 0
DWIDTH 8 0
BBX 8 15 0 -3
BITMAP
00
00
40
40
40
40
40
40
40
40
40
7C
02
04
00
ENDCHAR
STARTCHAR uni053D
ENCODING 1341
SWIDTH 512 0
DWIDTH 8 0
BBX 8 15 0 -3
BITMAP
00
00
40
40
40
40
72
52
52
52
52
4C
00
00
00
ENDCHAR
STARTCHAR uni053E
ENCODING 1342
SWIDTH 512 0
DWIDTH 8 0
BBX 8 15 0 -3
BITMAP
00
00
7E
18
24
42
42
42
42
42
42
3C
00
00
00
ENDCHAR
STARTCHAR uni053F
ENCODING 1343
SWIDTH 512 0
DWIDTH 8 0
BBX 8 15 0 -3
BITMAP
00
00
40
40
40
42
42
42
46
3A
02
02
00
00
00
ENDCHAR
STARTCHAR uni0540
ENCODING 1344
SWIDTH 512 0
DWIDTH 8 0
BBX 8 15 0 -3
BITMAP
00
00
08
10
18
08
10
20
40
60
18
06
00
00
00
ENDCHAR
STARTCHAR uni0541
ENCODING 1345
SWIDTH 512 0
DWIDTH 8 0
BBX 8 15 0 -3
BITMAP
00
00
3C
42
42
42
42
02
02
3C
44
3A
00
00
00
ENDCHAR
STARTCHAR uni0542
ENCODING 1346
SWIDTH 512 0
DWIDTH 8 0
BBX 8 15 0 -3
BITMAP
00
00
38
44
44
44
04
04
04
04
04
06
02
00
00
ENDCHAR
STARTCHAR uni0543
ENCODING 1347
SWIDTH 512 0
DWIDTH 8 0
BBX 8 15 0 -3
BITMAP
00
00
04
6A
18
18
24
24
42
42
42
7E
00
00
00
ENDCHAR
STARTCHAR uni0544
ENCODING 1348
SWIDTH 512 0
DWIDTH 8 0
BBX 8 15 0 -3
BITMAP
00
00
4C
4A
4A
48
48
48
48
48
48
30
00
00
00
ENDCHAR
STARTCHAR uni0545
ENCODING 1349
SWIDTH 512 0
DWIDTH 8 0
BBX 8 15 0 -3
BITMAP
00
00
18
24
04
38
44
02
02
42
44
38
00
00
00
ENDCHAR
STARTCHAR uni0546
ENCODING 1350
SWIDTH 512 0
DWIDTH 8 0
BBX 8 15 0 -3
BITMAP
00
00
60
20
20
20
20
20
22
22
22
1C
00
00
00
ENDCHAR
STARTCHAR uni0547
ENCODING 1351
SWIDTH 512 0
DWIDTH 8 0
BBX 8 15 0 -3
BITMAP
00
00
60
18
26
40
40
40
42
42
42
3C
00
00
00
ENDCHAR
STARTCHAR uni0548
ENCODING 1352
SWIDTH 512 0
DWIDTH 8 0
BBX 8 15 0 -3
BITMAP
00
00
3C
42
42
42
42
42
42
42
42
42
00
00
00
ENDCHAR
STARTCHAR uni0549
ENCODING 1353
SWIDTH 512 0
DWIDTH 8 0
BBX 8 15 0 -3
BITMAP
00
00
3C
42
42
42
42
02
02
64
18
06
00
00
00
ENDCHAR
STARTCHAR uni054A
ENCODING 1354
SWIDTH 512 0
DWIDTH 8 0
BBX 8 15 0 -3
BITMAP
00
00
1C
2A
2A
2A
0A
0A
0A
02
02
02
00
00
00
ENDCHAR
STARTCHAR uni054B
ENCODING 1355
SWIDTH 512 0
DWIDTH 8 0
BBX 8 15 0 -3
BITMAP
00
00
38
44
42
42
22
12
0C
08
7C
22
00
00
00
ENDCHAR
STARTCHAR uni054C
ENCODING 1356
SWIDTH 512 0
DWIDTH 8 0
BBX 8 15 0 -3
BITMAP
00
00
30
48
48
48
4C
4A
4A
48
48
48
00
00
00
ENDCHAR
STARTCHAR uni054D
ENCODING 1357
SWIDTH 512 0
DWIDTH 8 0
BBX 8 15 0 -3
BITMAP
00
00
42
42
42
42
42
42
42
42
42
3C
00
00
00
ENDCHAR
STARTCHAR uni054E
ENCODING 1358
SWIDTH 512 0
DWIDTH 8 0
BBX 8 15 0 -3
BITMAP
00
00
04
04
04
44
44
44
3C
04
04
06
02
02
00
ENDCHAR
STARTCHAR uni054F
ENCODING 1359
SWIDTH 512 0
DWIDTH 8 0
BBX 8 15 0 -3
BITMAP
00
00
3C
42
40
40
3C
02
02
02
42
3C
00
00
00
ENDCHAR
STARTCHAR uni0550
ENCODING 1360
SWIDTH 512 0
DWIDTH 8 0
BBX 8 15 0 -3
BITMAP
00
00
3C
42
42
40
40
40
40
40
40
40
00
00
00
ENDCHAR
STARTCHAR uni0551
ENCODING 1361
SWIDTH 512 0
DWIDTH 8 0
BBX 8 15 0 -3
BITMAP
00
00
18
24
24
18
64
02
02
02
42
3C
00
00
00
ENDCHAR
STARTCHAR uni0552
ENCODING 1362
SWIDTH 512 0
DWIDTH 8 0
BBX 8 15 0 -3
BITMAP
00
00
20
20
20
20
3C
22
20
20
20
20
00
00
00
ENDCHAR
STARTCHAR uni0553
ENCODING 1363
SWIDTH 512 0
DWIDTH 8 0
BBX 8 15 0 -3
BITMAP
00
00
08
1C
2A
2A
2A
2A
2A
2A
1C
08
00
00
00
ENDCHAR
STARTCHAR uni0554
ENCODING 1364
SWIDTH 512 0
DWIDTH 8 0
BBX 8 15 0 -3
BITMAP
00
00
0C
12
12
12
12
1C
10
50
3C
12
00
00
00
ENDCHAR
STARTCHAR uni0555
ENCODING 1365
SWIDTH 512 0
DWIDTH 8 0
BBX 8 15 0 -3
BITMAP
00
00
3C
42
42
42
42
42
42
42
42
3C
00
00
00
ENDCHAR
STARTCHAR uni0556
ENCODING 1366
SWIDTH 512 0
DWIDTH 8 0
BBX 8 15 0 -3
BITMAP
00
00
10
28
28
1C
0A
0A
2A
2A
2A
1C
00
00
00
ENDCHAR
STARTCHAR uni0559
ENCODING 1369
SWIDTH 512 0
DWIDTH 8 0
BBX 8 15 0 -3
BITMAP
00
00
08
10
10
08
00
00
00
00
00
00
00
00
00
ENDCHAR
STARTCHAR uni055A
ENCODING 1370
SWIDTH 512 0
DWIDTH 8 0
BBX 8 15 0 -3
BITMAP
00
00
10
08
08
10
00
00
00
00
00
00
00
00
00
ENDCHAR
STARTCHAR uni055B
ENCODING 1371
SWIDTH 512 0
DWIDTH 8 0
BBX 8 15 0 -3
BITMAP
00
00
00
08
10
00
00
00
00
00
00
00
00
00
00
ENDCHAR
STARTCHAR uni055C
ENCODING 1372
SWIDTH 512 0
DWIDTH 8 0
BBX 8 15 0 -3
BITMAP
00
00
02
1C
20
00
00
00
00
00
00
00
00
00
00
ENDCHAR
STARTCHAR uni055D
ENCODING 1373
SWIDTH 512 0
DWIDTH 8 0
BBX 8 15 0 -3
BITMAP
00
00
00
10
08
00
00
00
00
00
00
00
00
00
00
ENDCHAR
STARTCHAR uni055E
ENCODING 1374
SWIDTH 512 0
DWIDTH 8 0
BBX 8 15 0 -3
BITMAP
00
00
00
1C
22
2A
24
00
00
00
00
00
00
00
00
ENDCHAR
STARTCHAR uni055F
ENCODING 1375
SWIDTH 512 0
DWIDTH 8 0
BBX 8 15 0 -3
BITMAP
00
00
00
30
22
1C
00
00
00
00
00
00
00
00
00
ENDCHAR
STARTCHAR uni0561
ENCODING 1377
SWIDTH 512 0
DWIDTH 8 0
BBX 8 15 0 -3
BITMAP
00
00
00
00
00
22
22
2A
2A
2A
2A
16
00
00
00
ENDCHAR
STARTCHAR uni0562
ENCODING 1378
SWIDTH 512 0
DWIDTH 8 0
BBX 8 15 0 -3
BITMAP
00
00
00
00
00
3C
42
42
42
40
40
7E
40
40
00
ENDCHAR
STARTCHAR uni0563
ENCODING 1379
SWIDTH 512 0
DWIDTH 8 0
BBX 8 15 0 -3
BITMAP
00
00
00
00
00
34
4C
44
44
44
44
3E
04
04
00
ENDCHAR
STARTCHAR uni0564
ENCODING 1380
SWIDTH 512 0
DWIDTH 8 0
BBX 8 15 0 -3
BITMAP
00
00
00
00
00
58
64
44
44
44
44
46
04
04
00
ENDCHAR
STARTCHAR uni0565
ENCODING 1381
SWIDTH 512 0
DWIDTH 8 0
BBX 8 15 0 -3
BITMAP
00
00
40
40
40
7E
40
42
42
42
46
3A
00
00
00
ENDCHAR
STARTCHAR uni0566
ENCODING 1382
SWIDTH 512 0
DWIDTH 8 0
BBX 8 15 0 -3
BITMAP
00
00
00
00
00
34
4C
44
44
44
4C
34
04
06
00
ENDCHAR
STARTCHAR uni0567
ENCODING 1383
SWIDTH 512 0
DWIDTH 8 0
BBX 8 15 0 -3
BITMAP
00
00
40
40
40
7C
40
40
40
40
40
3C
02
04
00
ENDCHAR
STARTCHAR uni0568
ENCODING 1384
SWIDTH 512 0
DWIDTH 8 0
BBX 8 15 0 -3
BITMAP
00
00
00
00
00
5C
62
42
42
42
42
42
40
7E
00
ENDCHAR
STARTCHAR uni0569
ENCODING 1385
SWIDTH 512 0
DWIDTH 8 0
BBX 8 15 0 -3
BITMAP
00
00
00
00
00
58
64
44
4E
54
54
48
40
40
00
ENDCHAR
STARTCHAR uni056A
ENCODING 1386
SWIDTH 512 0
DWIDTH 8 0
BBX 8 15 0 -3
BITMAP
00
00
04
04
04
3E
44
44
44
44
44
38
00
00
00
ENDCHAR
STARTCHAR uni056B
ENCODING 1387
SWIDTH 512 0
DWIDTH 8 0
BBX 8 15 0 -3
BITMAP
00
00
20
20
20
2C
32
22
22
22
22
22
20
20
00
ENDCHAR
STARTCHAR uni056C
ENCODING 1388
SWIDTH 512 0
DWIDTH 8 0
BBX 8 15 0 -3
BITMAP
00
00
00
00
00
30
10
10
10
10
10
10
10
0C
00
ENDCHAR
STARTCHAR uni056D
ENCODING 1389
SWIDTH 512 0
DWIDTH 8 0
BBX 8 15 0 -3
BITMAP
00
00
40
40
40
40
72
52
52
52
52
4E
40
40
00
ENDCHAR
STARTCHAR uni056E
ENCODING 1390
SWIDTH 512 0
DWIDTH 8 0
BBX 8 15 0 -3
BITMAP
00
00
00
70
08
04
3E
44
44
44
44
38
00
00
00
ENDCHAR
STARTCHAR uni056F
ENCODING 1391
SWIDTH 512 0
DWIDTH 8 0
BBX 8 15 0 -3
BITMAP
00
00
40
40
40
40
42
42
42
42
46
3A
02
02
00
ENDCHAR
STARTCHAR uni0570
ENCODING 1392
SWIDTH 512 0
DWIDTH 8 0
BBX 8 15 0 -3
BITMAP
00
00
40
40
40
5C
62
42
42
42
42
42
00
00
00
ENDCHAR
STARTCHAR uni0571
ENCODING 1393
SWIDTH 512 0
DWIDTH 8 0
BBX 8 15 0 -3
BITMAP
00
00
08
10
08
3C
42
42
42
42
46
3A
00
00
00
ENDCHAR
STARTCHAR uni0572
ENCODING 1394
SWIDTH 512 0
DWIDTH 8 0
BBX 8 15 0 -3
BITMAP
00
00
00
00
00
58
64
44
44
44
44
44
04
06
00
ENDCHAR
STARTCHAR uni0573
ENCODING 1395
SWIDTH 512 0
DWIDTH 8 0
BBX 8 15 0 -3
BITMAP
00
00
1C
22
20
7C
22
22
22
22
26
3A
00
00
00
ENDCHAR
STARTCHAR uni0574
ENCODING 1396
SWIDTH 512 0
DWIDTH 8 0
BBX 8 15 0 -3
BITMAP
00
00
04
0A
08
44
44
44
44
44
4C
34
00
00
00
ENDCHAR
STARTCHAR uni0575
ENCODING 1397
SWIDTH 512 0
DWIDTH 8 0
BBX 8 15 0 -3
BITMAP
00
00
00
00
00
0C
04
04
04
04
04
04
04
38
00
ENDCHAR
STARTCHAR uni0576
ENCODING 1398
SWIDTH 512 0
DWIDTH 8 0
BBX 8 15 0 -3
BITMAP
00
00
30
40
40
22
22
22
22
22
26
1A
00
00
00
ENDCHAR
STARTCHAR uni0577
ENCODING 1399
SWIDTH 512 0
DWIDTH 8 0
BBX 8 15 0 -3
BITMAP
00
00
00
00
00
1C
22
02
04
08
10
20
20
1E
00
ENDCHAR
STARTCHAR uni0578
ENCODING 1400
SWIDTH 512 0
DWIDTH 8 0
BBX 8 15 0 -3
BITMAP
00
00
00
00
00
5C
62
42
42
42
42
42
00
00
00
ENDCHAR
STARTCHAR uni0579
ENCODING 1401
SWIDTH 512 0
DWIDTH 8 0
BBX 8 15 0 -3
BITMAP
00
00
00
00
10
20
20
10
08
10
20
40
40
3E
00
ENDCHAR
STARTCHAR uni057A
ENCODING 1402
SWIDTH 512 0
DWIDTH 8 0
BBX 8 15 0 -3
BITMAP
00
00
00
00
00
22
22
2A
2A
2A
2A
16
02
02
00
ENDCHAR
STARTCHAR uni057B
ENCODING 1403
SWIDTH 512 0
DWIDTH 8 0
BBX 8 15 0 -3
BITMAP
00
00
00
00
00
3C
42
42
42
34
08
10
10
1E
00
ENDCHAR
STARTCHAR uni057C
ENCODING 1404
SWIDTH 512 0
DWIDTH 8 0
BBX 8 15 0 -3
BITMAP
00
00
00
00
00
5C
62
42
42
44
48
5C
00
00
00
ENDCHAR
STARTCHAR uni057D
ENCODING 1405
SWIDTH 512 0
DWIDTH 8 0
BBX 8 15 0 -3
BITMAP
00
00
00
00
00
42
42
42
42
42
46
3A
00
00
00
ENDCHAR
STARTCHAR uni057E
ENCODING 1406
SWIDTH 512 0
DWIDTH 8 0
BBX 8 15 0 -3
BITMAP
00
00
04
04
04
04
44
44
44
44
4C
34
04
06
00
ENDCHAR
STARTCHAR uni057F
ENCODING 1407
SWIDTH 512 0
DWIDTH 8 0
BBX 8 15 0 -3
BITMAP
00
00
00
00
00
2C
2A
2A
2A
2A
2A
1A
08
08
00
ENDCHAR
STARTCHAR uni0580
ENCODING 1408
SWIDTH 512 0
DWIDTH 8 0
BBX 8 15 0 -3
BITMAP
00
00
00
00
00
5C
62
42
42
42
42
42
40
40
00
ENDCHAR
STARTCHAR uni0581
ENCODING 1409
SWIDTH 512 0
DWIDTH 8 0
BBX 8 15 0 -3
BITMAP
00
00
00
00
00
3C
42
42
42
42
3E
02
42
3C
00
ENDCHAR
STARTCHAR uni0582
ENCODING 1410
SWIDTH 512 0
DWIDTH 8 0
BBX 8 15 0 -3
BITMAP
00
00
00
00
00
30
10
10
10
10
10
0C
00
00
00
ENDCHAR
STARTCHAR uni0583
ENCODING 1411
SWIDTH 512 0
DWIDTH 8 0
BBX 8 15 0 -3
BITMAP
00
00
08
08
08
2C
2A
2A
2A
2A
2A
1A
08
08
00
ENDCHAR
STARTCHAR uni0584
ENCODING 1412
SWIDTH 512 0
DWIDTH 8 0
BBX 8 15 0 -3
BITMAP
00
00
2C
32
22
22
22
32
2C
20
7E
20
00
00
00
ENDCHAR
STARTCHAR uni0585
ENCODING 1413
SWIDTH 512 0
DWIDTH 8 0
BBX 8 15 0 -3
BITMAP
00
00
00
00
00
3C
42
42
42
42
42
3C
00
00
00
ENDCHAR
STARTCHAR uni0586
ENCODING 1414
SWIDTH 512 0
DWIDTH 8 0
BBX 8 15 0 -3
BITMAP
00
00
18
28
28
1C
0A
0A
2A
2A
2A
1C
08
08
00
ENDCHAR
STARTCHAR uni0587
ENCODING 1415
SWIDTH 512 0
DWIDTH 8 0
BBX 8 15 0 -3
BITMAP
00
00
40
40
40
48
48
48
48
48
48
36
00
00
00
ENDCHAR
STARTCHAR uni0589
ENCODING 1417
SWIDTH 512 0
DWIDTH 8 0
BBX 8 15 0 -3
BITMAP
00
00
00
00
00
18
18
00
18
18
00
00
00
00
00
ENDCHAR
STARTCHAR uni058A
ENCODING 1418
SWIDTH 512 0
DWIDTH 8 0
BBX 8 15 0 -3
BITMAP
00
00
00
00
00
00
00
30
22
1C
00
00
00
00
00
ENDCHAR
STARTCHAR afii57645
ENCODING 1470
SWIDTH 512 0
DWIDTH 8 0
BBX 8 15 0 -3
BITMAP
00
00
00
00
00
3E
00
00
00
00
00
00
00
00
00
ENDCHAR
STARTCHAR afii57842
ENCODING 1472
SWIDTH 512 0
DWIDTH 8 0
BBX 8 15 0 -3
BITMAP
00
00
00
00
00
08
08
08
08
08
08
08
00
00
00
ENDCHAR
STARTCHAR afii57658
ENCODING 1475
SWIDTH 512 0
DWIDTH 8 0
BBX 8 15 0 -3
BITMAP
00
00
00
00
00
08
08
00
00
08
08
00
00
00
00
ENDCHAR
STARTCHAR afii57664
ENCODING 1488
SWIDTH 512 0
DWIDTH 8 0
BBX 8 15 0 -3
BITMAP
00
00
00
00
00
24
22
12
1A
24
22
32
00
00
00
ENDCHAR
STARTCHAR afii57665
ENCODING 1489
SWIDTH 512 0
DWIDTH 8 0
BBX 8 15 0 -3
BITMAP
00
00
00
00
00
3C
04
04
04
04
04
3E
00
00
00
ENDCHAR
STARTCHAR afii57666
ENCODING 1490
SWIDTH 512 0
DWIDTH 8 0
BBX 8 15 0 -3
BITMAP
00
00
00
00
00
20
10
10
08
08
14
24
00
00
00
ENDCHAR
STARTCHAR afii57667
ENCODING 1491
SWIDTH 512 0
DWIDTH 8 0
BBX 8 15 0 -3
BITMAP
00
00
00
00
00
3E
04
04
04
04
04
04
00
00
00
ENDCHAR
STARTCHAR afii57668
ENCODING 1492
SWIDTH 512 0
DWIDTH 8 0
BBX 8 15 0 -3
BITMAP
00
00
00
00
00
3E
02
02
22
22
22
22
00
00
00
ENDCHAR
STARTCHAR afii57669
ENCODING 1493
SWIDTH 512 0
DWIDTH 8 0
BBX 8 15 0 -3
BITMAP
00
00
00
00
00
18
08
08
08
08
08
08
00
00
00
ENDCHAR
STARTCHAR afii57670
ENCODING 1494
SWIDTH 512 0
DWIDTH 8 0
BBX 8 15 0 -3
BITMAP
00
00
00
00
00
3E
08
08
04
04
04
04
00
00
00
ENDCHAR
STARTCHAR afii57671
ENCODING 1495
SWIDTH 512 0
DWIDTH 8 0
BBX 8 15 0 -3
BITMAP
00
00
00
00
00
3E
12
12
12
12
12
12
00
00
00
ENDCHAR
STARTCHAR afii57672
ENCODING 1496
SWIDTH 512 0
DWIDTH 8 0
BBX 8 15 0 -3
BITMAP
00
00
00
00
00
26
2A
2A
22
22
22
3E
00
00
00
ENDCHAR
STARTCHAR afii57673
ENCODING 1497
SWIDTH 512 0
DWIDTH 8 0
BBX 8 15 0 -3
BITMAP
00
00
00
00
00
18
08
08
00
00
00
00
00
00
00
ENDCHAR
STARTCHAR afii57674
ENCODING 1498
SWIDTH 512 0
DWIDTH 8 0
BBX 8 15 0 -3
BITMAP
00
00
00
00
00
3E
02
02
02
02
02
02
02
02
00
ENDCHAR
STARTCHAR afii57675
ENCODING 1499
SWIDTH 512 0
DWIDTH 8 0
BBX 8 15 0 -3
BITMAP
00
00
00
00
00
3E
02
02
02
02
02
3C
00
00
00
ENDCHAR
STARTCHAR afii57676
ENCODING 1500
SWIDTH 512 0
DWIDTH 8 0
BBX 8 15 0 -3
BITMAP
00
00
20
20
20
3E
02
02
04
08
10
10
00
00
00
ENDCHAR
STARTCHAR afii57677
ENCODING 1501
SWIDTH 512 0
DWIDTH 8 0
BBX 8 15 0 -3
BITMAP
00
00
00
00
00
3E
12
12
12
12
12
1E
00
00
00
ENDCHAR
STARTCHAR afii57678
ENCODING 1502
SWIDTH 512 0
DWIDTH 8 0
BBX 8 15 0 -3
BITMAP
00
00
00
00
00
24
2A
12
22
22
22
2E
00
00
00
ENDCHAR
STARTCHAR afii57679
ENCODING 1503
SWIDTH 512 0
DWIDTH 8 0
BBX 8 15 0 -3
BITMAP
00
00
00
00
00
18
08
08
08
08
08
08
08
08
00
ENDCHAR
STARTCHAR afii57680
ENCODING 1504
SWIDTH 512 0
DWIDTH 8 0
BBX 8 15 0 -3
BITMAP
00
00
00
00
00
0C
04
04
04
04
04
3C
00
00
00
ENDCHAR
STARTCHAR afii57681
ENCODING 1505
SWIDTH 512 0
DWIDTH 8 0
BBX 8 15 0 -3
BITMAP
00
00
00
00
00
3E
12
12
12
12
14
18
00
00
00
ENDCHAR
STARTCHAR afii57682
ENCODING 1506
SWIDTH 512 0
DWIDTH 8 0
BBX 8 15 0 -3
BITMAP
00
00
00
00
00
36
12
12
12
12
14
38
00
00
00
ENDCHAR
STARTCHAR afii57683
ENCODING 1507
SWIDTH 512 0
DWIDTH 8 0
BBX 8 15 0 -3
BITMAP
00
00
00
00
00
3E
12
12
1A
02
02
02
02
02
00
ENDCHAR
STARTCHAR afii57684
ENCODING 1508
SWIDTH 512 0
DWIDTH 8 0
BBX 8 15 0 -3
BITMAP
00
00
00
00
00
3E
12
12
1A
02
02
3C
00
00
00
ENDCHAR
STARTCHAR afii57685
ENCODING 1509
SWIDTH 512 0
DWIDTH 8 0
BBX 8 15 0 -3
BITMAP
00
00
00
00
00
24
12
12
14
18
10
10
10
10
00
ENDCHAR
STARTCHAR afii57686
ENCODING 1510
SWIDTH 512 0
DWIDTH 8 0
BBX 8 15 0 -3
BITMAP
00
00
00
00
00
24
12
0A
04
02
02
3E
00
00
00
ENDCHAR
STARTCHAR afii57687
ENCODING 1511
SWIDTH 512 0
DWIDTH 8 0
BBX 8 15 0 -3
BITMAP
00
00
00
00
00
3E
02
22
22
24
28
20
20
20
00
ENDCHAR
STARTCHAR afii57688
ENCODING 1512
SWIDTH 512 0
DWIDTH 8 0
BBX 8 15 0 -3
BITMAP
00
00
00
00
00
3C
02
02
02
02
02
02
00
00
00
ENDCHAR
STARTCHAR afii57689
ENCODING 1513
SWIDTH 512 0
DWIDTH 8 0
BBX 8 15 0 -3
BITMAP
00
00
00
00
00
2A
2A
2A
2A
3A
22
3C
00
00
00
ENDCHAR
STARTCHAR afii57690
ENCODING 1514
SWIDTH 512 0
DWIDTH 8 0
BBX 8 15 0 -3
BITMAP
00
00
00
00
00
3E
12
12
12
12
12
22
00
00
00
ENDCHAR
STARTCHAR afii57716
ENCODING 1520
SWIDTH 512 0
DWIDTH 8 0
BBX 8 15 0 -3
BITMAP
00
00
00
00
00
36
12
12
12
12
12
12
00
00
00
ENDCHAR
STARTCHAR afii57717
ENCODING 1521
SWIDTH 512 0
DWIDTH 8 0
BBX 8 15 0 -3
BITMAP
00
00
00
00
00
36
12
12
02
02
02
02
00
00
00
ENDCHAR
STARTCHAR afii57718
ENCODING 1522
SWIDTH 512 0
DWIDTH 8 0
BBX 8 15 0 -3
BITMAP
00
00
00
00
00
36
12
12
00
00
00
00
00
00
00
ENDCHAR
STARTCHAR uni05F3
ENCODING 1523
SWIDTH 512 0
DWIDTH 8 0
BBX 8 15 0 -3
BITMAP
00
00
00
00
00
08
10
00
00
00
00
00
00
00
00
ENDCHAR
STARTCHAR uni05F4
ENCODING 1524
SWIDTH 512 0
DWIDTH 8 0
BBX 8 15 0 -3
BITMAP
00
00
00
00
00
12
24
00
00
00
00
00
00
00
00
ENDCHAR
STARTCHAR uni0E01
ENCODING 3585
SWIDTH 512 0
DWIDTH 8 0
BBX 8 15 0 -3
BITMAP
00
00
00
00
00
3C
42
62
22
22
22
22
00
00
00
ENDCHAR
STARTCHAR uni0E02
ENCODING 3586
SWIDTH 512 0
DWIDTH 8 0
BBX 8 15 0 -3
BITMAP
00
00
00
00
00
3A
3A
0A
32
22
22
1C
00
00
00
ENDCHAR
STARTCHAR uni0E03
ENCODING 3587
SWIDTH 512 0
DWIDTH 8 0
BBX 8 15 0 -3
BITMAP
00
00
00
00
00
4A
7A
0A
32
22
22
1C
00
00
00
ENDCHAR
STARTCHAR uni0E04
ENCODING 3588
SWIDTH 512 0
DWIDTH 8 0
BBX 8 15 0 -3
BITMAP
00
00
00
00
00
3C
42
42
5A
5A
52
32
00
00
00
ENDCHAR
STARTCHAR uni0E05
ENCODING 3589
SWIDTH 512 0
DWIDTH 8 0
BBX 8 15 0 -3
BITMAP
00
00
00
00
00
34
4A
42
5A
5A
52
32
00
00
00
ENDCHAR
STARTCHAR uni0E06
ENCODING 3590
SWIDTH 512 0
DWIDTH 8 0
BBX 8 15 0 -3
BITMAP
00
00
00
00
00
52
72
12
22
22
72
6C
00
00
00
ENDCHAR
STARTCHAR uni0E07
ENCODING 3591
SWIDTH 512 0
DWIDTH 8 0
BBX 8 15 0 -3
BITMAP
00
00
00
00
00
0C
0C
04
44
24
24
1C
00
00
00
ENDCHAR
STARTCHAR uni0E08
ENCODING 3592
SWIDTH 512 0
DWIDTH 8 0
BBX 8 15 0 -3
BITMAP
00
00
00
00
00
3C
42
1A
1A
0A
0A
0C
00
00
00
ENDCHAR
STARTCHAR uni0E09
ENCODING 3593
SWIDTH 512 0
DWIDTH 8 0
BBX 8 15 0 -3
BITMAP
00
00
00
00
00
38
44
04
64
64
2E
36
00
00
00
ENDCHAR
STARTCHAR uni0E0A
ENCODING 3594
SWIDTH 512 0
DWIDTH 8 0
BBX 8 15 0 -3
BITMAP
00
00
00
00
04
64
68
24
44
44
44
38
00
00
00
ENDCHAR
STARTCHAR uni0E0B
ENCODING 3595
SWIDTH 512 0
DWIDTH 8 0
BBX 8 15 0 -3
BITMAP
00
00
00
00
02
52
74
12
22
22
22
1C
00
00
00
ENDCHAR
STARTCHAR uni0E0C
ENCODING 3596
SWIDTH 512 0
DWIDTH 8 0
BBX 8 15 0 -3
BITMAP
00
00
00
00
00
32
4A
2A
4A
4A
5E
7A
00
00
00
ENDCHAR
STARTCHAR uni0E0D
ENCODING 3597
SWIDTH 512 0
DWIDTH 8 0
BBX 8 15 0 -3
BITMAP
00
00
00
00
00
32
4A
2A
4A
4E
68
6E
00
00
00
ENDCHAR
STARTCHAR uni0E0E
ENCODING 3598
SWIDTH 512 0
DWIDTH 8 0
BBX 8 15 0 -3
BITMAP
00
00
00
00
00
3C
42
22
22
22
62
6A
12
2E
00
ENDCHAR
STARTCHAR uni0E0F
ENCODING 3599
SWIDTH 512 0
DWIDTH 8 0
BBX 8 15 0 -3
BITMAP
00
00
00
00
00
3C
42
22
22
22
62
6A
5E
2A
00
ENDCHAR
STARTCHAR uni0E10
ENCODING 3600
SWIDTH 512 0
DWIDTH 8 0
BBX 8 15 0 -3
BITMAP
00
00
00
00
00
3E
40
3C
32
32
12
0C
2A
56
00
ENDCHAR
STARTCHAR uni0E11
ENCODING 3601
SWIDTH 512 0
DWIDTH 8 0
BBX 8 15 0 -3
BITMAP
00
00
00
00
00
54
7A
12
22
22
22
22
00
00
00
ENDCHAR
STARTCHAR uni0E12
ENCODING 3602
SWIDTH 512 0
DWIDTH 8 0
BBX 8 15 0 -3
BITMAP
00
00
00
00
00
4A
7A
4A
7A
7A
5E
7A
00
00
00
ENDCHAR
STARTCHAR uni0E13
ENCODING 3603
SWIDTH 512 0
DWIDTH 8 0
BBX 8 15 0 -3
BITMAP
00
00
00
00
00
24
54
34
54
54
5E
76
00
00
00
ENDCHAR
STARTCHAR uni0E14
ENCODING 3604
SWIDTH 512 0
DWIDTH 8 0
BBX 8 15 0 -3
BITMAP
00
00
00
00
00
3C
42
42
5A
5A
4A
32
00
00
00
ENDCHAR
STARTCHAR uni0E15
ENCODING 3605
SWIDTH 512 0
DWIDTH 8 0
BBX 8 15 0 -3
BITMAP
00
00
00
00
00
34
4A
42
5A
5A
4A
32
00
00
00
ENDCHAR
STARTCHAR uni0E16
ENCODING 3606
SWIDTH 512 0
DWIDTH 8 0
BBX 8 15 0 -3
BITMAP
00
00
00
00
00
3C
42
62
22
22
32
32
00
00
00
ENDCHAR
STARTCHAR uni0E17
ENCODING 3607
SWIDTH 512 0
DWIDTH 8 0
BBX 8 15 0 -3
BITMAP
00
00
00
00
00
64
6A
32
22
22
22
22
00
00
00
ENDCHAR
STARTCHAR uni0E18
ENCODING 3608
SWIDTH 512 0
DWIDTH 8 0
BBX 8 15 0 -3
BITMAP
00
00
00
00
00
3E
40
7C
22
22
22
1C
00
00
00
ENDCHAR
STARTCHAR uni0E19
ENCODING 3609
SWIDTH 512 0
DWIDTH 8 0
BBX 8 15 0 -3
BITMAP
00
00
00
00
00
64
64
24
44
44
4E
36
00
00
00
ENDCHAR
STARTCHAR uni0E1A
ENCODING 3610
SWIDTH 512 0
DWIDTH 8 0
BBX 8 15 0 -3
BITMAP
00
00
00
00
00
62
62
22
22
22
22
1C
00
00
00
ENDCHAR
STARTCHAR uni0E1B
ENCODING 3611
SWIDTH 512 0
DWIDTH 8 0
BBX 8 15 0 -3
BITMAP
00
00
00
02
02
62
62
22
22
22
22
1C
00
00
00
ENDCHAR
STARTCHAR uni0E1C
ENCODING 3612
SWIDTH 512 0
DWIDTH 8 0
BBX 8 15 0 -3
BITMAP
00
00
00
00
00
62
62
42
42
4A
4A
34
00
00
00
ENDCHAR
STARTCHAR uni0E1D
ENCODING 3613
SWIDTH 512 0
DWIDTH 8 0
BBX 8 15 0 -3
BITMAP
00
00
00
02
02
62
62
42
42
4A
4A
34
00
00
00
ENDCHAR
STARTCHAR uni0E1E
ENCODING 3614
SWIDTH 512 0
DWIDTH 8 0
BBX 8 15 0 -3
BITMAP
00
00
00
00
00
6A
6A
2A
2A
2A
2A
14
00
00
00
ENDCHAR
STARTCHAR uni0E1F
ENCODING 3615
SWIDTH 512 0
DWIDTH 8 0
BBX 8 15 0 -3
BITMAP
00
00
00
02
02
6A
6A
2A
2A
2A
2A
14
00
00
00
ENDCHAR
STARTCHAR uni0E20
ENCODING 3616
SWIDTH 512 0
DWIDTH 8 0
BBX 8 15 0 -3
BITMAP
00
00
00
00
00
3C
42
62
22
22
62
62
00
00
00
ENDCHAR
STARTCHAR uni0E21
ENCODING 3617
SWIDTH 512 0
DWIDTH 8 0
BBX 8 15 0 -3
BITMAP
00
00
00
00
00
62
62
22
22
22
72
6C
00
00
00
ENDCHAR
STARTCHAR uni0E22
ENCODING 3618
SWIDTH 512 0
DWIDTH 8 0
BBX 8 15 0 -3
BITMAP
00
00
00
00
00
62
62
42
32
42
42
3C
00
00
00
ENDCHAR
STARTCHAR uni0E23
ENCODING 3619
SWIDTH 512 0
DWIDTH 8 0
BBX 8 15 0 -3
BITMAP
00
00
00
00
00
3C
42
78
04
04
0C
0C
00
00
00
ENDCHAR
STARTCHAR uni0E24
ENCODING 3620
SWIDTH 512 0
DWIDTH 8 0
BBX 8 15 0 -3
BITMAP
00
00
00
00
00
3C
42
62
22
22
32
32
02
02
00
ENDCHAR
STARTCHAR uni0E25
ENCODING 3621
SWIDTH 512 0
DWIDTH 8 0
BBX 8 15 0 -3
BITMAP
00
00
00
00
00
3C
42
1A
26
22
32
32
00
00
00
ENDCHAR
STARTCHAR uni0E26
ENCODING 3622
SWIDTH 512 0
DWIDTH 8 0
BBX 8 15 0 -3
BITMAP
00
00
00
00
00
3C
42
62
22
22
62
62
02
02
00
ENDCHAR
STARTCHAR uni0E27
ENCODING 3623
SWIDTH 512 0
DWIDTH 8 0
BBX 8 15 0 -3
BITMAP
00
00
00
00
00
3C
42
02
02
02
06
06
00
00
00
ENDCHAR
STARTCHAR uni0E28
ENCODING 3624
SWIDTH 512 0
DWIDTH 8 0
BBX 8 15 0 -3
BITMAP
00
00
00
02
02
3C
42
42
5A
5A
52
32
00
00
00
ENDCHAR
STARTCHAR uni0E29
ENCODING 3625
SWIDTH 512 0
DWIDTH 8 0
BBX 8 15 0 -3
BITMAP
00
00
00
00
00
62
62
2A
2E
22
22
1C
00
00
00
ENDCHAR
STARTCHAR uni0E2A
ENCODING 3626
SWIDTH 512 0
DWIDTH 8 0
BBX 8 15 0 -3
BITMAP
00
00
00
02
02
3C
42
1A
26
22
32
32
00
00
00
ENDCHAR
STARTCHAR uni0E2B
ENCODING 3627
SWIDTH 512 0
DWIDTH 8 0
BBX 8 15 0 -3
BITMAP
00
00
00
00
00
66
66
24
2A
32
22
22
00
00
00
ENDCHAR
STARTCHAR uni0E2C
ENCODING 3628
SWIDTH 512 0
DWIDTH 8 0
BBX 8 15 0 -3
BITMAP
00
00
00
02
02
6C
62
2A
2A
2A
2A
14
00
00
00
ENDCHAR
STARTCHAR uni0E2D
ENCODING 3629
SWIDTH 512 0
DWIDTH 8 0
BBX 8 15 0 -3
BITMAP
00
00
00
00
00
3C
42
32
32
22
22
1C
00
00
00
ENDCHAR
STARTCHAR uni0E2E
ENCODING 3630
SWIDTH 512 0
DWIDTH 8 0
BBX 8 15 0 -3
BITMAP
00
00
00
02
02
3C
7A
02
32
32
22
1C
00
00
00
ENDCHAR
STARTCHAR uni0E2F
ENCODING 3631
SWIDTH 512 0
DWIDTH 8 0
BBX 8 15 0 -3
BITMAP
00
00
00
00
00
66
7A
02
02
02
02
04
00
00
00
ENDCHAR
STARTCHAR uni0E30
ENCODING 3632
SWIDTH 512 0
DWIDTH 8 0
BBX 8 15 0 -3
BITMAP
00
00
00
00
00
00
32
3C
00
32
3C
00
00
00
00
ENDCHAR
STARTCHAR uni0E31
ENCODING 3633
SWIDTH 512 0
DWIDTH 8 0
BBX 8 15 0 -3
BITMAP
00
00
20
3E
00
00
00
00
00
00
00
00
00
00
00
ENDCHAR
STARTCHAR uni0E32
ENCODING 3634
SWIDTH 512 0
DWIDTH 8 0
BBX 8 15 0 -3
BITMAP
00
00
00
00
00
3C
42
02
02
02
02
02
00
00
00
ENDCHAR
STARTCHAR uni0E33
ENCODING 3635
SWIDTH 512 0
DWIDTH 8 0
BBX 8 15 0 -3
BITMAP
00
00
00
60
60
1C
22
02
02
02
02
02
00
00
00
ENDCHAR
STARTCHAR uni0E34
ENCODING 3636
SWIDTH 512 0
DWIDTH 8 0
BBX 8 15 0 -3
BITMAP
00
00
00
3E
00
00
00
00
00
00
00
00
00
00
00
ENDCHAR
STARTCHAR uni0E35
ENCODING 3637
SWIDTH 512 0
DWIDTH 8 0
BBX 8 15 0 -3
BITMAP
00
00
02
3E
00
00
00
00
00
00
00
00
00
00
00
ENDCHAR
STARTCHAR uni0E36
ENCODING 3638
SWIDTH 512 0
DWIDTH 8 0
BBX 8 15 0 -3
BITMAP
00
00
06
3E
00
00
00
00
00
00
00
00
00
00
00
ENDCHAR
STARTCHAR uni0E37
ENCODING 3639
SWIDTH 512 0
DWIDTH 8 0
BBX 8 15 0 -3
BITMAP
00
00
0A
3E
00
00
00
00
00
00
00
00
00
00
00
ENDCHAR
STARTCHAR uni0E38
ENCODING 3640
SWIDTH 512 0
DWIDTH 8 0
BBX 8 15 0 -3
BITMAP
00
00
00
00
00
00
00
00
00
00
00
00
06
02
00
ENDCHAR
STARTCHAR uni0E39
ENCODING 3641
SWIDTH 512 0
DWIDTH 8 0
BBX 8 15 0 -3
BITMAP
00
00
00
00
00
00
00
00
00
00
00
00
1A
0E
00
ENDCHAR
STARTCHAR uni0E3A
ENCODING 3642
SWIDTH 512 0
DWIDTH 8 0
BBX 8 15 0 -3
BITMAP
00
00
00
00
00
00
00
00
00
00
00
00
06
06
00
ENDCHAR
STARTCHAR uni0E3F
ENCODING 3647
SWIDTH 512 0
DWIDTH 8 0
BBX 8 15 0 -3
BITMAP
00
00
00
00
14
7C
56
56
7C
56
56
7C
14
00
00
ENDCHAR
STARTCHAR uni0E40
ENCODING 3648
SWIDTH 512 0
DWIDTH 8 0
BBX 8 15 0 -3
BITMAP
00
00
00
00
00
10
10
10
10
10
18
18
00
00
00
ENDCHAR
STARTCHAR uni0E41
ENCODING 3649
SWIDTH 512 0
DWIDTH 8 0
BBX 8 15 0 -3
BITMAP
00
00
00
00
00
24
24
24
24
24
36
36
00
00
00
ENDCHAR
STARTCHAR uni0E42
ENCODING 3650
SWIDTH 512 0
DWIDTH 8 0
BBX 8 15 0 -3
BITMAP
00
00
00
3E
40
7C
04
04
04
04
06
06
00
00
00
ENDCHAR
STARTCHAR uni0E43
ENCODING 3651
SWIDTH 512 0
DWIDTH 8 0
BBX 8 15 0 -3
BITMAP
00
00
00
38
44
54
34
04
04
04
06
06
00
00
00
ENDCHAR
STARTCHAR uni0E44
ENCODING 3652
SWIDTH 512 0
DWIDTH 8 0
BBX 8 15 0 -3
BITMAP
00
00
00
6C
14
04
04
04
04
04
06
06
00
00
00
ENDCHAR
STARTCHAR uni0E45
ENCODING 3653
SWIDTH 512 0
DWIDTH 8 0
BBX 8 15 0 -3
BITMAP
00
00
00
00
00
3C
42
02
02
02
02
02
02
02
00
ENDCHAR
STARTCHAR uni0E46
ENCODING 3654
SWIDTH 512 0
DWIDTH 8 0
BBX 8 15 0 -3
BITMAP
00
00
00
00
00
74
6A
02
02
02
02
02
04
08
00
ENDCHAR
STARTCHAR uni0E47
ENCODING 3655
SWIDTH 512 0
DWIDTH 8 0
BBX 8 15 0 -3
BITMAP
01
1E
2A
16
00
00
00
00
00
00
00
00
00
00
00
ENDCHAR
STARTCHAR uni0E48
ENCODING 3656
SWIDTH 512 0
DWIDTH 8 0
BBX 8 15 0 -3
BITMAP
02
02
00
00
00
00
00
00
00
00
00
00
00
00
00
ENDCHAR
STARTCHAR uni0E49
ENCODING 3657
SWIDTH 512 0
DWIDTH 8 0
BBX 8 15 0 -3
BITMAP
1A
0C
00
00
00
00
00
00
00
00
00
00
00
00
00
ENDCHAR
STARTCHAR uni0E4A
ENCODING 3658
SWIDTH 512 0
DWIDTH 8 0
BBX 8 15 0 -3
BITMAP
2A
3C
00
00
00
00
00
00
00
00
00
00
00
00
00
ENDCHAR
STARTCHAR uni0E4B
ENCODING 3659
SWIDTH 512 0
DWIDTH 8 0
BBX 8 15 0 -3
BITMAP
02
07
02
00
00
00
00
00
00
00
00
00
00
00
00
ENDCHAR
STARTCHAR uni0E4C
ENCODING 3660
SWIDTH 512 0
DWIDTH 8 0
BBX 8 15 0 -3
BITMAP
06
04
00
00
00
00
00
00
00
00
00
00
00
00
00
ENDCHAR
STARTCHAR uni0E4D
ENCODING 3661
SWIDTH 512 0
DWIDTH 8 0
BBX 8 15 0 -3
BITMAP
00
00
06
06
00
00
00
00
00
00
00
00
00
00
00
ENDCHAR
STARTCHAR uni0E4E
ENCODING 3662
SWIDTH 512 0
DWIDTH 8 0
BBX 8 15 0 -3
BITMAP
07
04
08
0C
00
00
00
00
00
00
00
00
00
00
00
ENDCHAR
STARTCHAR uni0E4F
ENCODING 3663
SWIDTH 512 0
DWIDTH 8 0
BBX 8 15 0 -3
BITMAP
00
00
00
00
00
00
3C
66
5A
5A
66
3C
00
00
00
ENDCHAR
STARTCHAR uni0E50
ENCODING 3664
SWIDTH 512 0
DWIDTH 8 0
BBX 8 15 0 -3
BITMAP
00
00
00
00
00
00
3C
42
42
42
42
3C
00
00
00
ENDCHAR
STARTCHAR uni0E51
ENCODING 3665
SWIDTH 512 0
DWIDTH 8 0
BBX 8 15 0 -3
BITMAP
00
00
00
00
00
00
3C
42
5A
3A
04
38
00
00
00
ENDCHAR
STARTCHAR uni0E52
ENCODING 3666
SWIDTH 512 0
DWIDTH 8 0
BBX 8 15 0 -3
BITMAP
00
00
00
00
40
40
4A
56
5A
5A
42
3C
00
00
00
ENDCHAR
STARTCHAR uni0E53
ENCODING 3667
SWIDTH 512 0
DWIDTH 8 0
BBX 8 15 0 -3
BITMAP
00
00
00
00
00
00
34
4A
4A
4A
6A
6A
00
00
00
ENDCHAR
STARTCHAR uni0E54
ENCODING 3668
SWIDTH 512 0
DWIDTH 8 0
BBX 8 15 0 -3
BITMAP
00
00
00
00
02
02
3C
40
4C
4C
48
3E
00
00
00
ENDCHAR
STARTCHAR uni0E55
ENCODING 3669
SWIDTH 512 0
DWIDTH 8 0
BBX 8 15 0 -3
BITMAP
00
00
00
00
02
1A
3C
40
4C
4C
48
3E
00
00
00
ENDCHAR
STARTCHAR uni0E56
ENCODING 3670
SWIDTH 512 0
DWIDTH 8 0
BBX 8 15 0 -3
BITMAP
00
00
00
00
00
40
2C
12
02
02
1A
1C
00
00
00
ENDCHAR
STARTCHAR uni0E57
ENCODING 3671
SWIDTH 512 0
DWIDTH 8 0
BBX 8 15 0 -3
BITMAP
00
00
00
00
02
02
2A
5A
5A
4A
4A
64
00
00
00
ENDCHAR
STARTCHAR uni0E58
ENCODING 3672
SWIDTH 512 0
DWIDTH 8 0
BBX 8 15 0 -3
BITMAP
00
00
00
00
00
02
3C
40
46
46
72
2C
00
00
00
ENDCHAR
STARTCHAR uni0E59
ENCODING 3673
SWIDTH 512 0
DWIDTH 8 0
BBX 8 15 0 -3
BITMAP
00
00
00
00
02
02
0C
38
48
44
74
32
00
00
00
ENDCHAR
STARTCHAR uni0E5A
ENCODING 3674
SWIDTH 512 0
DWIDTH 8 0
BBX 8 15 0 -3
BITMAP
00
00
00
00
00
6A
7A
0A
0A
0A
0A
14
00
00
00
ENDCHAR
STARTCHAR uni0E5B
ENCODING 3675
SWIDTH 512 0
DWIDTH 8 0
BBX 8 15 0 -3
BITMAP
00
00
00
00
00
60
60
54
56
58
50
20
00
00
00
ENDCHAR
STARTCHAR uni16A0
ENCODING 5792
SWIDTH 512 0
DWIDTH 8 0
BBX 8 15 0 -3
BITMAP
00
00
24
28
30
24
28
30
20
20
20
20
00
00
00
ENDCHAR
STARTCHAR uni16A2
ENCODING 5794
SWIDTH 512 0
DWIDTH 8 0
BBX 8 15 0 -3
BITMAP
00
00
30
28
24
24
22
22
22
22
22
22
00
00
00
ENDCHAR
STARTCHAR uni16A3
ENCODING 5795
SWIDTH 512 0
DWIDTH 8 0
BBX 8 15 0 -3
BITMAP
00
00
08
14
22
22
22
2A
2A
2A
2A
2A
00
00
00
ENDCHAR
STARTCHAR uni16A6
ENCODING 5798
SWIDTH 512 0
DWIDTH 8 0
BBX 8 15 0 -3
BITMAP
00
00
20
20
30
28
24
24
28
30
20
20
00
00
00
ENDCHAR
STARTCHAR uni16A9
ENCODING 5801
SWIDTH 512 0
DWIDTH 8 0
BBX 8 15 0 -3
BITMAP
00
00
22
34
28
22
34
28
20
20
20
20
00
00
00
ENDCHAR
STARTCHAR uni16AA
ENCODING 5802
SWIDTH 512 0
DWIDTH 8 0
BBX 8 15 0 -3
BITMAP
00
00
22
34
28
20
30
28
24
20
20
20
00
00
00
ENDCHAR
STARTCHAR uni16AB
ENCODING 5803
SWIDTH 512 0
DWIDTH 8 0
BBX 8 15 0 -3
BITMAP
00
00
20
30
28
24
30
28
24
20
20
20
00
00
00
ENDCHAR
STARTCHAR uni16B1
ENCODING 5809
SWIDTH 512 0
DWIDTH 8 0
BBX 8 15 0 -3
BITMAP
00
00
30
28
24
28
30
28
24
20
20
20
00
00
00
ENDCHAR
STARTCHAR uni16B3
ENCODING 5811
SWIDTH 512 0
DWIDTH 8 0
BBX 8 15 0 -3
BITMAP
00
00
20
20
30
28
24
24
22
22
22
22
00
00
00
ENDCHAR
STARTCHAR uni16B7
ENCODING 5815
SWIDTH 512 0
DWIDTH 8 0
BBX 8 15 0 -3
BITMAP
00
00
22
22
14
14
08
08
14
14
22
22
00
00
00
ENDCHAR
STARTCHAR uni16B8
ENCODING 5816
SWIDTH 512 0
DWIDTH 8 0
BBX 8 15 0 -3
BITMAP
00
00
22
22
1C
14
2A
2A
14
1C
22
22
00
00
00
ENDCHAR
STARTCHAR uni16B9
ENCODING 5817
SWIDTH 512 0
DWIDTH 8 0
BBX 8 15 0 -3
BITMAP
00
00
30
28
24
28
30
20
20
20
20
20
00
00
00
ENDCHAR
STARTCHAR uni16BB
ENCODING 5819
SWIDTH 512 0
DWIDTH 8 0
BBX 8 15 0 -3
BITMAP
00
00
22
22
22
32
2A
26
32
2A
26
22
00
00
00
ENDCHAR
STARTCHAR uni16BE
ENCODING 5822
SWIDTH 512 0
DWIDTH 8 0
BBX 8 15 0 -3
BITMAP
00
00
08
08
28
18
08
0C
0A
08
08
08
00
00
00
ENDCHAR
STARTCHAR uni16C1
ENCODING 5825
SWIDTH 512 0
DWIDTH 8 0
BBX 8 15 0 -3
BITMAP
00
00
08
08
08
08
08
08
08
08
08
08
00
00
00
ENDCHAR
STARTCHAR uni16C4
ENCODING 5828
SWIDTH 512 0
DWIDTH 8 0
BBX 8 15 0 -3
BITMAP
00
00
08
08
1C
2A
2A
2A
1C
08
08
08
00
00
00
ENDCHAR
STARTCHAR uni16C7
ENCODING 5831
SWIDTH 512 0
DWIDTH 8 0
BBX 8 15 0 -3
BITMAP
00
00
08
0C
0A
08
08
08
08
28
18
08
00
00
00
ENDCHAR
STARTCHAR uni16C8
ENCODING 5832
SWIDTH 512 0
DWIDTH 8 0
BBX 8 15 0 -3
BITMAP
00
00
22
34
28
20
20
20
20
28
34
22
00
00
00
ENDCHAR
STARTCHAR uni16C9
ENCODING 5833
SWIDTH 512 0
DWIDTH 8 0
BBX 8 15 0 -3
BITMAP
00
00
2A
2A
2A
2A
1C
08
08
08
08
08
00
00
00
ENDCHAR
STARTCHAR uni16CB
ENCODING 5835
SWIDTH 512 0
DWIDTH 8 0
BBX 8 15 0 -3
BITMAP
00
00
20
20
22
26
2A
32
22
02
02
02
00
00
00
ENDCHAR
STARTCHAR uni16CF
ENCODING 5839
SWIDTH 512 0
DWIDTH 8 0
BBX 8 15 0 -3
BITMAP
00
00
08
1C
2A
08
08
08
08
08
08
08
00
00
00
ENDCHAR
STARTCHAR uni16D2
ENCODING 5842
SWIDTH 512 0
DWIDTH 8 0
BBX 8 15 0 -3
BITMAP
00
00
30
28
24
28
30
30
28
24
28
30
00
00
00
ENDCHAR
STARTCHAR uni16D6
ENCODING 5846
SWIDTH 512 0
DWIDTH 8 0
BBX 8 15 0 -3
BITMAP
00
00
22
36
2A
22
22
22
22
22
22
22
00
00
00
ENDCHAR
STARTCHAR uni16D7
ENCODING 5847
SWIDTH 512 0
DWIDTH 8 0
BBX 8 15 0 -3
BITMAP
00
00
22
36
2A
36
22
22
22
22
22
22
00
00
00
ENDCHAR
STARTCHAR uni16DA
ENCODING 5850
SWIDTH 512 0
DWIDTH 8 0
BBX 8 15 0 -3
BITMAP
00
00
20
30
28
24
20
20
20
20
20
20
00
00
00
ENDCHAR
STARTCHAR uni16DD
ENCODING 5853
SWIDTH 512 0
DWIDTH 8 0
BBX 8 15 0 -3
BITMAP
00
00
22
14
08
14
22
22
14
08
14
22
00
00
00
ENDCHAR
STARTCHAR uni16DE
ENCODING 5854
SWIDTH 512 0
DWIDTH 8 0
BBX 8 15 0 -3
BITMAP
00
00
22
22
22
36
2A
36
22
22
22
22
00
00
00
ENDCHAR
STARTCHAR uni16DF
ENCODING 5855
SWIDTH 512 0
DWIDTH 8 0
BBX 8 15 0 -3
BITMAP
00
00
08
14
22
22
14
08
14
14
22
22
00
00
00
ENDCHAR
STARTCHAR uni16E0
ENCODING 5856
SWIDTH 512 0
DWIDTH 8 0
BBX 8 15 0 -3
BITMAP
00
00
2A
2A
1C
08
08
08
08
08
08
08
00
00
00
ENDCHAR
STARTCHAR uni16E1
ENCODING 5857
SWIDTH 512 0
DWIDTH 8 0
BBX 8 15 0 -3
BITMAP
00
00
2A
2A
1C
08
1C
2A
2A
08
08
08
00
00
00
ENDCHAR
STARTCHAR uni16E2
ENCODING 5858
SWIDTH 512 0
DWIDTH 8 0
BBX 8 15 0 -3
BITMAP
00
00
08
08
08
08
08
1C
2A
2A
2A
2A
00
00
00
ENDCHAR
STARTCHAR uni16E5
ENCODING 5861
SWIDTH 512 0
DWIDTH 8 0
BBX 8 15 0 -3
BITMAP
00
00
22
36
2A
22
22
22
22
2A
36
22
00
00
00
ENDCHAR
STARTCHAR uni16EB
ENCODING 5867
SWIDTH 512 0
DWIDTH 8 0
BBX 8 15 0 -3
BITMAP
00
00
00
00
00
00
08
08
00
00
00
00
00
00
00
ENDCHAR
STARTCHAR uni16EC
ENCODING 5868
SWIDTH 512 0
DWIDTH 8 0
BBX 8 15 0 -3
BITMAP
00
00
00
00
08
08
00
00
08
08
00
00
00
00
00
ENDCHAR
STARTCHAR uni16ED
ENCODING 5869
SWIDTH 512 0
DWIDTH 8 0
BBX 8 15 0 -3
BITMAP
00
00
00
00
00
24
18
18
24
00
00
00
00
00
00
ENDCHAR
STARTCHAR uni1E00
ENCODING 7680
SWIDTH 512 0
DWIDTH 8 0
BBX 8 15 0 -3
BITMAP
00
00
18
24
42
42
42
7E
42
42
42
18
24
18
00
ENDCHAR
STARTCHAR uni1E01
ENCODING 7681
SWIDTH 512 0
DWIDTH 8 0
BBX 8 15 0 -3
BITMAP
00
00
00
00
00
3C
42
0E
32
42
42
3E
24
18
00
ENDCHAR
STARTCHAR uni1E02
ENCODING 7682
SWIDTH 512 0
DWIDTH 8 0
BBX 8 15 0 -3
BITMAP
00
08
00
78
44
42
44
78
44
42
44
78
00
00
00
ENDCHAR
STARTCHAR uni1E03
ENCODING 7683
SWIDTH 512 0
DWIDTH 8 0
BBX 8 15 0 -3
BITMAP
00
08
40
40
40
5C
62
42
42
42
62
5C
00
00
00
ENDCHAR
STARTCHAR uni1E04
ENCODING 7684
SWIDTH 512 0
DWIDTH 8 0
BBX 8 15 0 -3
BITMAP
00
00
78
44
42
44
78
44
42
42
44
78
00
08
00
ENDCHAR
STARTCHAR uni1E05
ENCODING 7685
SWIDTH 512 0
DWIDTH 8 0
BBX 8 15 0 -3
BITMAP
00
00
40
40
40
5C
62
42
42
42
62
5C
00
08
00
ENDCHAR
STARTCHAR uni1E06
ENCODING 7686
SWIDTH 512 0
DWIDTH 8 0
BBX 8 15 0 -3
BITMAP
00
00
78
44
42
44
78
44
42
42
44
78
00
3C
00
ENDCHAR
STARTCHAR uni1E07
ENCODING 7687
SWIDTH 512 0
DWIDTH 8 0
BBX 8 15 0 -3
BITMAP
00
00
40
40
40
5C
62
42
42
42
62
5C
00
3C
00
ENDCHAR
STARTCHAR uni1E08
ENCODING 7688
SWIDTH 512 0
DWIDTH 8 0
BBX 8 15 0 -3
BITMAP
08
10
00
3C
42
40
40
40
40
42
42
3C
08
10
00
ENDCHAR
STARTCHAR uni1E09
ENCODING 7689
SWIDTH 512 0
DWIDTH 8 0
BBX 8 15 0 -3
BITMAP
00
00
08
10
00
3C
42
40
40
40
42
3C
08
10
00
ENDCHAR
STARTCHAR uni1E0A
ENCODING 7690
SWIDTH 512 0
DWIDTH 8 0
BBX 8 15 0 -3
BITMAP
00
08
00
78
44
42
42
42
42
42
44
78
00
00
00
ENDCHAR
STARTCHAR uni1E0B
ENCODING 7691
SWIDTH 512 0
DWIDTH 8 0
BBX 8 15 0 -3
BITMAP
00
08
02
02
02
3A
46
42
42
42
46
3A
00
00
00
ENDCHAR
STARTCHAR uni1E0C
ENCODING 7692
SWIDTH 512 0
DWIDTH 8 0
BBX 8 15 0 -3
BITMAP
00
00
78
44
42
42
42
42
42
42
44
78
00
08
00
ENDCHAR
STARTCHAR uni1E0D
ENCODING 7693
SWIDTH 512 0
DWIDTH 8 0
BBX 8 15 0 -3
BITMAP
00
00
02
02
02
3A
46
42
42
42
46
3A
00
08
00
ENDCHAR
STARTCHAR uni1E0E
ENCODING 7694
SWIDTH 512 0
DWIDTH 8 0
BBX 8 15 0 -3
BITMAP
00
00
78
44
42
42
42
42
42
42
44
78
00
3C
00
ENDCHAR
STARTCHAR uni1E0F
ENCODING 7695
SWIDTH 512 0
DWIDTH 8 0
BBX 8 15 0 -3
BITMAP
00
00
02
02
02
3A
46
42
42
42
46
3A
00
3C
00
ENDCHAR
STARTCHAR uni1E10
ENCODING 7696
SWIDTH 512 0
DWIDTH 8 0
BBX 8 15 0 -3
BITMAP
00
00
78
44
42
42
42
42
42
42
44
78
08
10
00
ENDCHAR
STARTCHAR uni1E11
ENCODING 7697
SWIDTH 512 0
DWIDTH 8 0
BBX 8 15 0 -3
BITMAP
00
00
02
02
02
3A
46
42
42
42
46
3A
08
10
00
ENDCHAR
STARTCHAR uni1E12
ENCODING 7698
SWIDTH 512 0
DWIDTH 8 0
BBX 8 15 0 -3
BITMAP
00
00
78
44
42
42
42
42
42
42
44
78
08
14
00
ENDCHAR
STARTCHAR uni1E13
ENCODING 7699
SWIDTH 512 0
DWIDTH 8 0
BBX 8 15 0 -3
BITMAP
00
00
02
02
02
3A
46
42
42
42
46
3A
08
14
00
ENDCHAR
STARTCHAR uni1E14
ENCODING 7700
SWIDTH 512 0
DWIDTH 8 0
BBX 8 15 0 -3
BITMAP
10
08
3C
00
7E
40
40
40
78
40
40
7E
00
00
00
ENDCHAR
STARTCHAR uni1E15
ENCODING 7701
SWIDTH 512 0
DWIDTH 8 0
BBX 8 15 0 -3
BITMAP
10
08
00
3C
00
3C
42
42
7E
40
42
3C
00
00
00
ENDCHAR
STARTCHAR uni1E16
ENCODING 7702
SWIDTH 512 0
DWIDTH 8 0
BBX 8 15 0 -3
BITMAP
08
10
3C
00
7E
40
40
40
78
40
40
7E
00
00
00
ENDCHAR
STARTCHAR uni1E17
ENCODING 7703
SWIDTH 512 0
DWIDTH 8 0
BBX 8 15 0 -3
BITMAP
08
10
00
3C
00
3C
42
42
7E
40
42
3C
00
00
00
ENDCHAR
STARTCHAR uni1E18
ENCODING 7704
SWIDTH 512 0
DWIDTH 8 0
BBX 8 15 0 -3
BITMAP
00
00
7E
40
40
40
78
40
40
40
40
7E
10
28
00
ENDCHAR
STARTCHAR uni1E19
ENCODING 7705
SWIDTH 512 0
DWIDTH 8 0
BBX 8 15 0 -3
BITMAP
00
00
00
00
00
3C
42
42
7E
40
42
3C
10
28
00
ENDCHAR
STARTCHAR uni1E1A
ENCODING 7706
SWIDTH 512 0
DWIDTH 8 0
BBX 8 15 0 -3
BITMAP
00
00
7E
40
40
40
78
40
40
40
40
7E
14
28
00
ENDCHAR
STARTCHAR uni1E1B
ENCODING 7707
SWIDTH 512 0
DWIDTH 8 0
BBX 8 15 0 -3
BITMAP
00
00
00
00
00
3C
42
42
7E
40
42
3C
14
28
00
ENDCHAR
STARTCHAR uni1E1C
ENCODING 7708
SWIDTH 512 0
DWIDTH 8 0
BBX 8 15 0 -3
BITMAP
42
3C
00
7E
40
40
40
78
40
40
40
7E
10
20
00
ENDCHAR
STARTCHAR uni1E1D
ENCODING 7709
SWIDTH 512 0
DWIDTH 8 0
BBX 8 15 0 -3
BITMAP
00
00
42
3C
00
3C
42
42
7E
40
42
3C
10
20
00
ENDCHAR
STARTCHAR uni1E1E
ENCODING 7710
SWIDTH 512 0
DWIDTH 8 0
BBX 8 15 0 -3
BITMAP
00
08
00
7E
40
40
40
78
40
40
40
40
00
00
00
ENDCHAR
STARTCHAR uni1E1F
ENCODING 7711
SWIDTH 512 0
DWIDTH 8 0
BBX 8 15 0 -3
BITMAP
08
00
0C
12
10
10
7C
10
10
10
10
10
00
00
00
ENDCHAR
STARTCHAR uni1E20
ENCODING 7712
SWIDTH 512 0
DWIDTH 8 0
BBX 8 15 0 -3
BITMAP
00
3C
00
3C
42
42
40
4E
42
42
46
3A
00
00
00
ENDCHAR
STARTCHAR uni1E21
ENCODING 7713
SWIDTH 512 0
DWIDTH 8 0
BBX 8 15 0 -3
BITMAP
00
00
00
3C
00
3A
44
44
44
38
20
5C
42
3C
00
ENDCHAR
STARTCHAR uni1E22
ENCODING 7714
SWIDTH 512 0
DWIDTH 8 0
BBX 8 15 0 -3
BITMAP
08
00
42
42
42
42
7E
42
42
42
42
42
00
00
00
ENDCHAR
STARTCHAR uni1E23
ENCODING 7715
SWIDTH 512 0
DWIDTH 8 0
BBX 8 15 0 -3
BITMAP
40
00
40
40
40
5C
62
42
42
42
42
42
00
00
00
ENDCHAR
STARTCHAR uni1E24
ENCODING 7716
SWIDTH 512 0
DWIDTH 8 0
BBX 8 15 0 -3
BITMAP
00
00
42
42
42
42
7E
42
42
42
42
42
08
00
00
ENDCHAR
STARTCHAR uni1E25
ENCODING 7717
SWIDTH 512 0
DWIDTH 8 0
BBX 8 15 0 -3
BITMAP
00
00
40
40
40
5C
62
42
42
42
42
42
08
00
00
ENDCHAR
STARTCHAR uni1E26
ENCODING 7718
SWIDTH 512 0
DWIDTH 8 0
BBX 8 15 0 -3
BITMAP
24
00
42
42
42
42
7E
42
42
42
42
42
00
00
00
ENDCHAR
STARTCHAR uni1E27
ENCODING 7719
SWIDTH 512 0
DWIDTH 8 0
BBX 8 15 0 -3
BITMAP
24
00
40
40
40
5C
62
42
42
42
42
42
00
00
00
ENDCHAR
STARTCHAR uni1E28
ENCODING 7720
SWIDTH 512 0
DWIDTH 8 0
BBX 8 15 0 -3
BITMAP
00
00
42
42
42
42
7E
42
42
42
42
52
08
30
00
ENDCHAR
STARTCHAR uni1E29
ENCODING 7721
SWIDTH 512 0
DWIDTH 8 0
BBX 8 15 0 -3
BITMAP
00
00
40
40
40
5C
62
42
42
42
42
52
08
30
00
ENDCHAR
STARTCHAR uni1E2A
ENCODING 7722
SWIDTH 512 0
DWIDTH 8 0
BBX 8 15 0 -3
BITMAP
00
00
42
42
42
42
7E
42
42
42
42
00
24
18
00
ENDCHAR
STARTCHAR uni1E2B
ENCODING 7723
SWIDTH 512 0
DWIDTH 8 0
BBX 8 15 0 -3
BITMAP
00
00
40
40
40
5C
62
42
42
42
42
00
24
18
00
ENDCHAR
STARTCHAR uni1E2C
ENCODING 7724
SWIDTH 512 0
DWIDTH 8 0
BBX 8 15 0 -3
BITMAP
00
00
3E
08
08
08
08
08
08
08
3E
00
1A
2C
00
ENDCHAR
STARTCHAR uni1E2D
ENCODING 7725
SWIDTH 512 0
DWIDTH 8 0
BBX 8 15 0 -3
BITMAP
00
00
08
08
00
18
08
08
08
08
3E
00
1A
2C
00
ENDCHAR
STARTCHAR uni1E2E
ENCODING 7726
SWIDTH 512 0
DWIDTH 8 0
BBX 8 15 0 -3
BITMAP
04
08
14
00
3E
08
08
08
08
08
08
3E
00
00
00
ENDCHAR
STARTCHAR uni1E2F
ENCODING 7727
SWIDTH 512 0
DWIDTH 8 0
BBX 8 15 0 -3
BITMAP
04
08
00
14
00
18
08
08
08
08
08
3E
00
00
00
ENDCHAR
STARTCHAR uni1E30
ENCODING 7728
SWIDTH 512 0
DWIDTH 8 0
BBX 8 15 0 -3
BITMAP
08
10
00
42
44
48
50
60
50
48
44
42
00
00
00
ENDCHAR
STARTCHAR uni1E31
ENCODING 7729
SWIDTH 512 0
DWIDTH 8 0
BBX 8 15 0 -3
BITMAP
08
10
40
40
40
44
48
50
70
48
44
42
00
00
00
ENDCHAR
STARTCHAR uni1E32
ENCODING 7730
SWIDTH 512 0
DWIDTH 8 0
BBX 8 15 0 -3
BITMAP
00
00
42
44
48
50
60
50
48
44
42
42
00
08
00
ENDCHAR
STARTCHAR uni1E33
ENCODING 7731
SWIDTH 512 0
DWIDTH 8 0
BBX 8 15 0 -3
BITMAP
00
00
40
40
40
44
48
50
70
48
44
42
00
08
00
ENDCHAR
STARTCHAR uni1E34
ENCODING 7732
SWIDTH 512 0
DWIDTH 8 0
BBX 8 15 0 -3
BITMAP
00
00
42
44
48
50
60
50
48
44
42
42
00
3C
00
ENDCHAR
STARTCHAR uni1E35
ENCODING 7733
SWIDTH 512 0
DWIDTH 8 0
BBX 8 15 0 -3
BITMAP
00
00
40
40
40
44
48
50
70
48
44
42
00
3C
00
ENDCHAR
STARTCHAR uni1E36
ENCODING 7734
SWIDTH 512 0
DWIDTH 8 0
BBX 8 15 0 -3
BITMAP
00
00
40
40
40
40
40
40
40
40
40
7E
00
08
00
ENDCHAR
STARTCHAR uni1E37
ENCODING 7735
SWIDTH 512 0
DWIDTH 8 0
BBX 8 15 0 -3
BITMAP
00
00
18
08
08
08
08
08
08
08
08
3E
00
08
00
ENDCHAR
STARTCHAR uni1E38
ENCODING 7736
SWIDTH 512 0
DWIDTH 8 0
BBX 8 15 0 -3
BITMAP
00
78
00
20
20
20
20
20
20
20
20
3F
00
04
00
ENDCHAR
STARTCHAR uni1E39
ENCODING 7737
SWIDTH 512 0
DWIDTH 8 0
BBX 8 15 0 -3
BITMAP
00
3C
00
18
08
08
08
08
08
08
08
3E
00
08
00
ENDCHAR
STARTCHAR uni1E3A
ENCODING 7738
SWIDTH 512 0
DWIDTH 8 0
BBX 8 15 0 -3
BITMAP
00
00
40
40
40
40
40
40
40
40
40
7E
00
3C
00
ENDCHAR
STARTCHAR uni1E3B
ENCODING 7739
SWIDTH 512 0
DWIDTH 8 0
BBX 8 15 0 -3
BITMAP
00
00
18
08
08
08
08
08
08
08
08
3E
00
3E
00
ENDCHAR
STARTCHAR uni1E3C
ENCODING 7740
SWIDTH 512 0
DWIDTH 8 0
BBX 8 15 0 -3
BITMAP
00
00
40
40
40
40
40
40
40
40
40
7E
08
14
00
ENDCHAR
STARTCHAR uni1E3D
ENCODING 7741
SWIDTH 512 0
DWIDTH 8 0
BBX 8 15 0 -3
BITMAP
00
00
18
08
08
08
08
08
08
08
08
3E
08
14
00
ENDCHAR
STARTCHAR uni1E3E
ENCODING 7742
SWIDTH 512 0
DWIDTH 8 0
BBX 8 15 0 -3
BITMAP
08
10
00
42
66
66
5A
5A
42
42
42
42
00
00
00
ENDCHAR
STARTCHAR uni1E3F
ENCODING 7743
SWIDTH 512 0
DWIDTH 8 0
BBX 8 15 0 -3
BITMAP
00
00
08
10
00
34
2A
2A
2A
2A
2A
22
00
00
00
ENDCHAR
STARTCHAR uni1E40
ENCODING 7744
SWIDTH 512 0
DWIDTH 8 0
BBX 8 15 0 -3
BITMAP
00
10
00
42
66
66
5A
5A
42
42
42
42
00
00
00
ENDCHAR
STARTCHAR uni1E41
ENCODING 7745
SWIDTH 512 0
DWIDTH 8 0
BBX 8 15 0 -3
BITMAP
00
00
00
08
00
34
2A
2A
2A
2A
2A
22
00
00
00
ENDCHAR
STARTCHAR uni1E42
ENCODING 7746
SWIDTH 512 0
DWIDTH 8 0
BBX 8 15 0 -3
BITMAP
00
00
42
66
66
5A
5A
42
42
42
42
42
00
08
00
ENDCHAR
STARTCHAR uni1E43
ENCODING 7747
SWIDTH 512 0
DWIDTH 8 0
BBX 8 15 0 -3
BITMAP
00
00
00
00
00
34
2A
2A
2A
2A
2A
22
00
04
00
ENDCHAR
STARTCHAR uni1E44
ENCODING 7748
SWIDTH 512 0
DWIDTH 8 0
BBX 8 15 0 -3
BITMAP
00
08
00
42
42
62
52
4A
46
42
42
42
00
00
00
ENDCHAR
STARTCHAR uni1E45
ENCODING 7749
SWIDTH 512 0
DWIDTH 8 0
BBX 8 15 0 -3
BITMAP
00
00
00
08
00
5C
62
42
42
42
42
42
00
00
00
ENDCHAR
STARTCHAR uni1E46
ENCODING 7750
SWIDTH 512 0
DWIDTH 8 0
BBX 8 15 0 -3
BITMAP
00
00
42
42
62
62
52
4A
46
46
42
42
00
08
00
ENDCHAR
STARTCHAR uni1E47
ENCODING 7751
SWIDTH 512 0
DWIDTH 8 0
BBX 8 15 0 -3
BITMAP
00
00
00
00
00
5C
62
42
42
42
42
42
00
08
00
ENDCHAR
STARTCHAR uni1E48
ENCODING 7752
SWIDTH 512 0
DWIDTH 8 0
BBX 8 15 0 -3
BITMAP
00
00
42
42
62
62
52
4A
46
46
42
42
00
3C
00
ENDCHAR
STARTCHAR uni1E49
ENCODING 7753
SWIDTH 512 0
DWIDTH 8 0
BBX 8 15 0 -3
BITMAP
00
00
00
00
00
5C
62
42
42
42
42
42
00
3C
00
ENDCHAR
STARTCHAR uni1E4A
ENCODING 7754
SWIDTH 512 0
DWIDTH 8 0
BBX 8 15 0 -3
BITMAP
00
00
42
42
62
62
52
4A
46
46
42
42
18
24
00
ENDCHAR
STARTCHAR uni1E4B
ENCODING 7755
SWIDTH 512 0
DWIDTH 8 0
BBX 8 15 0 -3
BITMAP
00
00
00
00
00
5C
62
42
42
42
42
42
18
24
00
ENDCHAR
STARTCHAR uni1E4C
ENCODING 7756
SWIDTH 512 0
DWIDTH 8 0
BBX 8 15 0 -3
BITMAP
08
10
14
28
3C
42
42
42
42
42
42
3C
00
00
00
ENDCHAR
STARTCHAR uni1E4D
ENCODING 7757
SWIDTH 512 0
DWIDTH 8 0
BBX 8 15 0 -3
BITMAP
08
10
14
28
00
3C
42
42
42
42
42
3C
00
00
00
ENDCHAR
STARTCHAR uni1E4E
ENCODING 7758
SWIDTH 512 0
DWIDTH 8 0
BBX 8 15 0 -3
BITMAP
14
00
14
28
3C
42
42
42
42
42
42
3C
00
00
00
ENDCHAR
STARTCHAR uni1E4F
ENCODING 7759
SWIDTH 512 0
DWIDTH 8 0
BBX 8 15 0 -3
BITMAP
14
00
14
28
00
3C
42
42
42
42
42
3C
00
00
00
ENDCHAR
STARTCHAR uni1E50
ENCODING 7760
SWIDTH 512 0
DWIDTH 8 0
BBX 8 15 0 -3
BITMAP
10
08
3C
00
3C
42
42
42
42
42
42
3C
00
00
00
ENDCHAR
STARTCHAR uni1E51
ENCODING 7761
SWIDTH 512 0
DWIDTH 8 0
BBX 8 15 0 -3
BITMAP
10
08
00
3C
00
3C
42
42
42
42
42
3C
00
00
00
ENDCHAR
STARTCHAR uni1E52
ENCODING 7762
SWIDTH 512 0
DWIDTH 8 0
BBX 8 15 0 -3
BITMAP
08
10
3C
00
3C
42
42
42
42
42
42
3C
00
00
00
ENDCHAR
STARTCHAR uni1E53
ENCODING 7763
SWIDTH 512 0
DWIDTH 8 0
BBX 8 15 0 -3
BITMAP
08
10
00
3C
00
3C
42
42
42
42
42
3C
00
00
00
ENDCHAR
STARTCHAR uni1E54
ENCODING 7764
SWIDTH 512 0
DWIDTH 8 0
BBX 8 15 0 -3
BITMAP
08
10
00
7C
42
42
42
42
7C
40
40
40
00
00
00
ENDCHAR
STARTCHAR uni1E55
ENCODING 7765
SWIDTH 512 0
DWIDTH 8 0
BBX 8 15 0 -3
BITMAP
00
00
08
10
00
5C
62
42
42
42
62
5C
40
40
00
ENDCHAR
STARTCHAR uni1E56
ENCODING 7766
SWIDTH 512 0
DWIDTH 8 0
BBX 8 15 0 -3
BITMAP
00
08
00
7C
42
42
42
42
7C
40
40
40
00
00
00
ENDCHAR
STARTCHAR uni1E57
ENCODING 7767
SWIDTH 512 0
DWIDTH 8 0
BBX 8 15 0 -3
BITMAP
00
00
00
08
00
5C
62
42
42
42
62
5C
40
40
00
ENDCHAR
STARTCHAR uni1E58
ENCODING 7768
SWIDTH 512 0
DWIDTH 8 0
BBX 8 15 0 -3
BITMAP
00
08
00
7C
42
42
42
7C
48
44
42
42
00
00
00
ENDCHAR
STARTCHAR uni1E59
ENCODING 7769
SWIDTH 512 0
DWIDTH 8 0
BBX 8 15 0 -3
BITMAP
00
00
00
08
00
5C
62
42
40
40
40
40
00
00
00
ENDCHAR
STARTCHAR uni1E5A
ENCODING 7770
SWIDTH 512 0
DWIDTH 8 0
BBX 8 15 0 -3
BITMAP
00
00
7C
42
42
42
42
7C
48
44
42
42
00
08
00
ENDCHAR
STARTCHAR uni1E5B
ENCODING 7771
SWIDTH 512 0
DWIDTH 8 0
BBX 8 15 0 -3
BITMAP
00
00
00
00
00
5C
62
42
40
40
40
40
00
40
00
ENDCHAR
STARTCHAR uni1E5C
ENCODING 7772
SWIDTH 512 0
DWIDTH 8 0
BBX 8 15 0 -3
BITMAP
00
3C
00
7C
42
42
42
7C
48
44
42
42
00
08
00
ENDCHAR
STARTCHAR uni1E5D
ENCODING 7773
SWIDTH 512 0
DWIDTH 8 0
BBX 8 15 0 -3
BITMAP
00
00
00
3C
00
5C
62
42
40
40
40
40
00
40
00
ENDCHAR
STARTCHAR uni1E5E
ENCODING 7774
SWIDTH 512 0
DWIDTH 8 0
BBX 8 15 0 -3
BITMAP
00
00
7C
42
42
42
42
7C
48
44
42
42
00
3C
00
ENDCHAR
STARTCHAR uni1E5F
ENCODING 7775
SWIDTH 512 0
DWIDTH 8 0
BBX 8 15 0 -3
BITMAP
00
00
00
00
00
2E
31
21
20
20
20
20
00
78
00
ENDCHAR
STARTCHAR uni1E60
ENCODING 7776
SWIDTH 512 0
DWIDTH 8 0
BBX 8 15 0 -3
BITMAP
00
08
00
3C
42
42
30
0C
02
42
42
3C
00
00
00
ENDCHAR
STARTCHAR uni1E61
ENCODING 7777
SWIDTH 512 0
DWIDTH 8 0
BBX 8 15 0 -3
BITMAP
00
00
00
08
00
3C
42
20
18
04
42
3C
00
00
00
ENDCHAR
STARTCHAR uni1E62
ENCODING 7778
SWIDTH 512 0
DWIDTH 8 0
BBX 8 15 0 -3
BITMAP
00
00
3C
42
42
40
30
0C
02
42
42
3C
00
08
00
ENDCHAR
STARTCHAR uni1E63
ENCODING 7779
SWIDTH 512 0
DWIDTH 8 0
BBX 8 15 0 -3
BITMAP
00
00
00
00
00
3C
42
20
18
04
42
3C
00
08
00
ENDCHAR
STARTCHAR uni1E64
ENCODING 7780
SWIDTH 512 0
DWIDTH 8 0
BBX 8 15 0 -3
BITMAP
10
04
08
00
3C
42
42
30
0C
42
42
3C
00
00
00
ENDCHAR
STARTCHAR uni1E65
ENCODING 7781
SWIDTH 512 0
DWIDTH 8 0
BBX 8 15 0 -3
BITMAP
00
10
04
08
00
3C
42
20
18
04
42
3C
00
00
00
ENDCHAR
STARTCHAR uni1E66
ENCODING 7782
SWIDTH 512 0
DWIDTH 8 0
BBX 8 15 0 -3
BITMAP
08
22
1C
00
3C
42
42
30
0C
42
42
3C
00
00
00
ENDCHAR
STARTCHAR uni1E67
ENCODING 7783
SWIDTH 512 0
DWIDTH 8 0
BBX 8 15 0 -3
BITMAP
00
10
44
38
00
3C
42
20
18
04
42
3C
00
00
00
ENDCHAR
STARTCHAR uni1E68
ENCODING 7784
SWIDTH 512 0
DWIDTH 8 0
BBX 8 15 0 -3
BITMAP
00
08
00
3C
42
42
30
0C
02
42
42
3C
00
08
00
ENDCHAR
STARTCHAR uni1E69
ENCODING 7785
SWIDTH 512 0
DWIDTH 8 0
BBX 8 15 0 -3
BITMAP
00
00
00
08
00
3C
42
20
18
04
42
3C
00
08
00
ENDCHAR
STARTCHAR uni1E6A
ENCODING 7786
SWIDTH 512 0
DWIDTH 8 0
BBX 8 15 0 -3
BITMAP
00
08
00
7F
08
08
08
08
08
08
08
08
00
00
00
ENDCHAR
STARTCHAR uni1E6B
ENCODING 7787
SWIDTH 512 0
DWIDTH 8 0
BBX 8 15 0 -3
BITMAP
10
00
10
10
10
7C
10
10
10
10
12
0C
00
00
00
ENDCHAR
STARTCHAR uni1E6C
ENCODING 7788
SWIDTH 512 0
DWIDTH 8 0
BBX 8 15 0 -3
BITMAP
00
00
7F
08
08
08
08
08
08
08
08
08
00
08
00
ENDCHAR
STARTCHAR uni1E6D
ENCODING 7789
SWIDTH 512 0
DWIDTH 8 0
BBX 8 15 0 -3
BITMAP
00
00
10
10
10
7C
10
10
10
10
12
0C
00
08
00
ENDCHAR
STARTCHAR uni1E6E
ENCODING 7790
SWIDTH 512 0
DWIDTH 8 0
BBX 8 15 0 -3
BITMAP
00
00
7F
08
08
08
08
08
08
08
08
08
00
1C
00
ENDCHAR
STARTCHAR uni1E6F
ENCODING 7791
SWIDTH 512 0
DWIDTH 8 0
BBX 8 15 0 -3
BITMAP
00
00
10
10
10
7C
10
10
10
10
12
0C
00
1C
00
ENDCHAR
STARTCHAR uni1E70
ENCODING 7792
SWIDTH 512 0
DWIDTH 8 0
BBX 8 15 0 -3
BITMAP
00
00
7F
08
08
08
08
08
08
08
08
00
08
14
00
ENDCHAR
STARTCHAR uni1E71
ENCODING 7793
SWIDTH 512 0
DWIDTH 8 0
BBX 8 15 0 -3
BITMAP
00
00
10
10
10
7C
10
10
10
10
12
0C
08
14
00
ENDCHAR
STARTCHAR uni1E72
ENCODING 7794
SWIDTH 512 0
DWIDTH 8 0
BBX 8 15 0 -3
BITMAP
00
00
42
42
42
42
42
42
42
42
42
3C
00
24
00
ENDCHAR
STARTCHAR uni1E73
ENCODING 7795
SWIDTH 512 0
DWIDTH 8 0
BBX 8 15 0 -3
BITMAP
00
00
00
00
00
42
42
42
42
42
46
3A
00
24
00
ENDCHAR
STARTCHAR uni1E74
ENCODING 7796
SWIDTH 512 0
DWIDTH 8 0
BBX 8 15 0 -3
BITMAP
00
00
42
42
42
42
42
42
42
42
3C
00
32
4C
00
ENDCHAR
STARTCHAR uni1E75
ENCODING 7797
SWIDTH 512 0
DWIDTH 8 0
BBX 8 15 0 -3
BITMAP
00
00
00
00
00
42
42
42
42
46
3A
00
32
4C
00
ENDCHAR
STARTCHAR uni1E76
ENCODING 7798
SWIDTH 512 0
DWIDTH 8 0
BBX 8 15 0 -3
BITMAP
00
00
42
42
42
42
42
42
42
42
42
3C
18
24
00
ENDCHAR
STARTCHAR uni1E77
ENCODING 7799
SWIDTH 512 0
DWIDTH 8 0
BBX 8 15 0 -3
BITMAP
00
00
00
00
00
42
42
42
42
42
46
3A
18
24
00
ENDCHAR
STARTCHAR uni1E78
ENCODING 7800
SWIDTH 512 0
DWIDTH 8 0
BBX 8 15 0 -3
BITMAP
24
00
32
4C
00
42
42
42
42
42
42
3C
00
00
00
ENDCHAR
STARTCHAR uni1E79
ENCODING 7801
SWIDTH 512 0
DWIDTH 8 0
BBX 8 15 0 -3
BITMAP
24
00
32
4C
00
42
42
42
42
42
46
3A
00
00
00
ENDCHAR
STARTCHAR uni1E7A
ENCODING 7802
SWIDTH 512 0
DWIDTH 8 0
BBX 8 15 0 -3
BITMAP
24
00
3C
00
42
42
42
42
42
42
42
3C
00
00
00
ENDCHAR
STARTCHAR uni1E7B
ENCODING 7803
SWIDTH 512 0
DWIDTH 8 0
BBX 8 15 0 -3
BITMAP
00
24
00
3C
00
42
42
42
42
42
46
3A
00
00
00
ENDCHAR
STARTCHAR uni1E7C
ENCODING 7804
SWIDTH 512 0
DWIDTH 8 0
BBX 8 15 0 -3
BITMAP
32
4C
00
42
42
42
24
24
24
18
18
18
00
00
00
ENDCHAR
STARTCHAR uni1E7D
ENCODING 7805
SWIDTH 512 0
DWIDTH 8 0
BBX 8 15 0 -3
BITMAP
00
00
12
2C
00
22
22
22
14
14
08
08
00
00
00
ENDCHAR
STARTCHAR uni1E7E
ENCODING 7806
SWIDTH 512 0
DWIDTH 8 0
BBX 8 15 0 -3
BITMAP
00
00
42
42
42
42
24
24
24
18
18
18
00
18
00
ENDCHAR
STARTCHAR uni1E7F
ENCODING 7807
SWIDTH 512 0
DWIDTH 8 0
BBX 8 15 0 -3
BITMAP
00
00
00
00
00
22
22
22
14
14
08
08
00
08
00
ENDCHAR
STARTCHAR Wgrave
ENCODING 7808
SWIDTH 512 0
DWIDTH 8 0
BBX 8 15 0 -3
BITMAP
10
08
00
42
42
42
42
5A
5A
66
66
42
00
00
00
ENDCHAR
STARTCHAR wgrave
ENCODING 7809
SWIDTH 512 0
DWIDTH 8 0
BBX 8 15 0 -3
BITMAP
00
00
10
08
00
22
22
2A
2A
2A
2A
14
00
00
00
ENDCHAR
STARTCHAR Wacute
ENCODING 7810
SWIDTH 512 0
DWIDTH 8 0
BBX 8 15 0 -3
BITMAP
08
10
00
42
42
42
42
5A
5A
66
66
42
00
00
00
ENDCHAR
STARTCHAR wacute
ENCODING 7811
SWIDTH 512 0
DWIDTH 8 0
BBX 8 15 0 -3
BITMAP
00
00
04
08
00
22
22
2A
2A
2A
2A
14
00
00
00
ENDCHAR
STARTCHAR Wdieresis
ENCODING 7812
SWIDTH 512 0
DWIDTH 8 0
BBX 8 15 0 -3
BITMAP
00
24
00
42
42
42
42
5A
5A
66
66
42
00
00
00
ENDCHAR
STARTCHAR wdieresis
ENCODING 7813
SWIDTH 512 0
DWIDTH 8 0
BBX 8 15 0 -3
BITMAP
00
00
00
14
00
22
22
2A
2A
2A
2A
14
00
00
00
ENDCHAR
STARTCHAR uni1E86
ENCODING 7814
SWIDTH 512 0
DWIDTH 8 0
BBX 8 15 0 -3
BITMAP
00
08
00
42
42
42
42
5A
5A
66
66
42
00
00
00
ENDCHAR
STARTCHAR uni1E87
ENCODING 7815
SWIDTH 512 0
DWIDTH 8 0
BBX 8 15 0 -3
BITMAP
00
00
00
08
00
22
22
2A
2A
2A
2A
14
00
00
00
ENDCHAR
STARTCHAR uni1E88
ENCODING 7816
SWIDTH 512 0
DWIDTH 8 0
BBX 8 15 0 -3
BITMAP
00
00
42
42
42
42
42
5A
5A
66
66
42
00
08
00
ENDCHAR
STARTCHAR uni1E89
ENCODING 7817
SWIDTH 512 0
DWIDTH 8 0
BBX 8 15 0 -3
BITMAP
00
00
00
00
00
22
22
2A
2A
2A
2A
14
00
08
00
ENDCHAR
STARTCHAR uni1E8A
ENCODING 7818
SWIDTH 512 0
DWIDTH 8 0
BBX 8 15 0 -3
BITMAP
00
18
00
42
42
24
24
18
24
24
42
42
00
00
00
ENDCHAR
STARTCHAR uni1E8B
ENCODING 7819
SWIDTH 512 0
DWIDTH 8 0
BBX 8 15 0 -3
BITMAP
00
00
00
18
00
42
42
24
18
24
42
42
00
00
00
ENDCHAR
STARTCHAR uni1E8C
ENCODING 7820
SWIDTH 512 0
DWIDTH 8 0
BBX 8 15 0 -3
BITMAP
00
24
00
42
42
24
24
18
24
24
42
42
00
00
00
ENDCHAR
STARTCHAR uni1E8D
ENCODING 7821
SWIDTH 512 0
DWIDTH 8 0
BBX 8 15 0 -3
BITMAP
00
00
00
24
00
42
42
24
18
24
42
42
00
00
00
ENDCHAR
STARTCHAR uni1E8E
ENCODING 7822
SWIDTH 512 0
DWIDTH 8 0
BBX 8 15 0 -3
BITMAP
00
08
00
22
22
14
14
08
08
08
08
08
00
00
00
ENDCHAR
STARTCHAR uni1E8F
ENCODING 7823
SWIDTH 512 0
DWIDTH 8 0
BBX 8 15 0 -3
BITMAP
00
00
00
18
00
42
42
42
42
46
3A
02
42
3C
00
ENDCHAR
STARTCHAR uni1E90
ENCODING 7824
SWIDTH 512 0
DWIDTH 8 0
BBX 8 15 0 -3
BITMAP
18
24
00
7E
04
08
08
10
20
20
40
7E
00
00
00
ENDCHAR
STARTCHAR uni1E91
ENCODING 7825
SWIDTH 512 0
DWIDTH 8 0
BBX 8 15 0 -3
BITMAP
00
00
18
24
00
7E
04
08
10
10
20
7E
00
00
00
ENDCHAR
STARTCHAR uni1E92
ENCODING 7826
SWIDTH 512 0
DWIDTH 8 0
BBX 8 15 0 -3
BITMAP
00
00
7E
02
04
08
08
10
20
20
40
7E
00
08
00
ENDCHAR
STARTCHAR uni1E93
ENCODING 7827
SWIDTH 512 0
DWIDTH 8 0
BBX 8 15 0 -3
BITMAP
00
00
00
00
00
7E
04
08
10
10
20
7E
00
08
00
ENDCHAR
STARTCHAR uni1E94
ENCODING 7828
SWIDTH 512 0
DWIDTH 8 0
BBX 8 15 0 -3
BITMAP
00
00
7E
02
04
08
08
10
20
20
40
7E
00
3C
00
ENDCHAR
STARTCHAR uni1E95
ENCODING 7829
SWIDTH 512 0
DWIDTH 8 0
BBX 8 15 0 -3
BITMAP
00
00
00
00
00
7E
04
08
10
10
20
7E
00
3C
00
ENDCHAR
STARTCHAR uni1E96
ENCODING 7830
SWIDTH 512 0
DWIDTH 8 0
BBX 8 15 0 -3
BITMAP
00
00
40
40
40
5C
62
42
42
42
42
42
00
3C
00
ENDCHAR
STARTCHAR uni1E97
ENCODING 7831
SWIDTH 512 0
DWIDTH 8 0
BBX 8 15 0 -3
BITMAP
00
28
00
10
10
7C
10
10
10
10
12
0C
00
00
00
ENDCHAR
STARTCHAR uni1E98
ENCODING 7832
SWIDTH 512 0
DWIDTH 8 0
BBX 8 15 0 -3
BITMAP
00
08
14
08
00
22
22
2A
2A
2A
2A
14
00
00
00
ENDCHAR
STARTCHAR uni1E99
ENCODING 7833
SWIDTH 512 0
DWIDTH 8 0
BBX 8 15 0 -3
BITMAP
00
18
24
18
00
42
42
42
42
46
3A
02
42
3C
00
ENDCHAR
STARTCHAR uni1E9A
ENCODING 7834
SWIDTH 512 0
DWIDTH 8 0
BBX 8 15 0 -3
BITMAP
00
04
02
04
00
3C
42
0E
32
42
46
3A
00
00
00
ENDCHAR
STARTCHAR uni1E9B
ENCODING 7835
SWIDTH 512 0
DWIDTH 8 0
BBX 8 15 0 -3
BITMAP
10
00
0C
12
10
10
70
10
10
10
10
10
00
00
00
ENDCHAR
STARTCHAR uni1EA0
ENCODING 7840
SWIDTH 512 0
DWIDTH 8 0
BBX 8 15 0 -3
BITMAP
00
00
18
24
42
42
42
7E
42
42
42
42
00
18
00
ENDCHAR
STARTCHAR uni1EA1
ENCODING 7841
SWIDTH 512 0
DWIDTH 8 0
BBX 8 15 0 -3
BITMAP
00
00
00
00
00
3C
42
0E
32
42
46
3A
00
18
00
ENDCHAR
STARTCHAR uni1EA2
ENCODING 7842
SWIDTH 512 0
DWIDTH 8 0
BBX 8 15 0 -3
BITMAP
10
08
18
24
42
42
42
7E
42
42
42
42
00
00
00
ENDCHAR
STARTCHAR uni1EA3
ENCODING 7843
SWIDTH 512 0
DWIDTH 8 0
BBX 8 15 0 -3
BITMAP
00
18
08
10
00
3C
42
0E
32
42
46
3A
00
00
00
ENDCHAR
STARTCHAR uni1EA4
ENCODING 7844
SWIDTH 512 0
DWIDTH 8 0
BBX 8 15 0 -3
BITMAP
22
54
00
18
24
42
42
7E
42
42
42
42
00
00
00
ENDCHAR
STARTCHAR uni1EA5
ENCODING 7845
SWIDTH 512 0
DWIDTH 8 0
BBX 8 15 0 -3
BITMAP
00
00
22
54
00
3C
42
0E
32
42
46
3A
00
00
00
ENDCHAR
STARTCHAR uni1EA6
ENCODING 7846
SWIDTH 512 0
DWIDTH 8 0
BBX 8 15 0 -3
BITMAP
44
2A
00
18
24
42
42
7E
42
42
42
42
00
00
00
ENDCHAR
STARTCHAR uni1EA7
ENCODING 7847
SWIDTH 512 0
DWIDTH 8 0
BBX 8 15 0 -3
BITMAP
00
00
44
2A
00
3C
42
0E
32
42
46
3A
00
00
00
ENDCHAR
STARTCHAR Ygrave
ENCODING 7922
SWIDTH 512 0
DWIDTH 8 0
BBX 8 15 0 -3
BITMAP
10
08
00
22
22
14
14
08
08
08
08
08
00
00
00
ENDCHAR
STARTCHAR ygrave
ENCODING 7923
SWIDTH 512 0
DWIDTH 8 0
BBX 8 15 0 -3
BITMAP
00
00
10
08
00
42
42
42
42
46
3A
02
42
3C
00
ENDCHAR
STARTCHAR uni1EF4
ENCODING 7924
SWIDTH 512 0
DWIDTH 8 0
BBX 8 15 0 -3
BITMAP
00
00
22
22
22
14
14
08
08
08
08
08
00
08
00
ENDCHAR
STARTCHAR uni1EF5
ENCODING 7925
SWIDTH 512 0
DWIDTH 8 0
BBX 8 15 0 -3
BITMAP
00
00
00
00
00
44
44
44
44
4C
34
04
44
3A
00
ENDCHAR
STARTCHAR uni1EF6
ENCODING 7926
SWIDTH 512 0
DWIDTH 8 0
BBX 8 15 0 -3
BITMAP
08
14
04
08
22
14
14
08
08
08
08
08
00
00
00
ENDCHAR
STARTCHAR uni1EF7
ENCODING 7927
SWIDTH 512 0
DWIDTH 8 0
BBX 8 15 0 -3
BITMAP
08
14
04
08
00
42
42
42
42
46
3A
02
42
3C
00
ENDCHAR
STARTCHAR uni1EF8
ENCODING 7928
SWIDTH 512 0
DWIDTH 8 0
BBX 8 15 0 -3
BITMAP
1A
2C
00
22
22
14
14
08
08
08
08
08
00
00
00
ENDCHAR
STARTCHAR uni1EF9
ENCODING 7929
SWIDTH 512 0
DWIDTH 8 0
BBX 8 15 0 -3
BITMAP
00
00
32
4C
00
42
42
42
42
46
3A
02
42
3C
00
ENDCHAR
STARTCHAR uni1F00
ENCODING 7936
SWIDTH 512 0
DWIDTH 8 0
BBX 8 15 0 -3
BITMAP
00
18
08
10
00
3A
46
42
42
46
4A
32
00
00
00
ENDCHAR
STARTCHAR uni1F01
ENCODING 7937
SWIDTH 512 0
DWIDTH 8 0
BBX 8 15 0 -3
BITMAP
00
18
10
08
00
3A
46
42
42
46
4A
32
00
00
00
ENDCHAR
STARTCHAR uni1F02
ENCODING 7938
SWIDTH 512 0
DWIDTH 8 0
BBX 8 15 0 -3
BITMAP
00
34
12
20
00
3A
46
42
42
46
4A
32
00
00
00
ENDCHAR
STARTCHAR uni1F03
ENCODING 7939
SWIDTH 512 0
DWIDTH 8 0
BBX 8 15 0 -3
BITMAP
00
34
22
10
00
3A
46
42
42
46
4A
32
00
00
00
ENDCHAR
STARTCHAR uni1F04
ENCODING 7940
SWIDTH 512 0
DWIDTH 8 0
BBX 8 15 0 -3
BITMAP
00
32
14
20
00
3A
46
42
42
46
4A
32
00
00
00
ENDCHAR
STARTCHAR uni1F05
ENCODING 7941
SWIDTH 512 0
DWIDTH 8 0
BBX 8 15 0 -3
BITMAP
00
32
24
10
00
3A
46
42
42
46
4A
32
00
00
00
ENDCHAR
STARTCHAR uni1F06
ENCODING 7942
SWIDTH 512 0
DWIDTH 8 0
BBX 8 15 0 -3
BITMAP
34
58
08
10
00
3A
46
42
42
46
4A
32
00
00
00
ENDCHAR
STARTCHAR uni1F07
ENCODING 7943
SWIDTH 512 0
DWIDTH 8 0
BBX 8 15 0 -3
BITMAP
34
58
10
08
00
3A
46
42
42
46
4A
32
00
00
00
ENDCHAR
STARTCHAR uni1F08
ENCODING 7944
SWIDTH 512 0
DWIDTH 8 0
BBX 8 15 0 -3
BITMAP
00
00
66
29
49
09
09
0F
09
09
09
09
00
00
00
ENDCHAR
STARTCHAR uni1F09
ENCODING 7945
SWIDTH 512 0
DWIDTH 8 0
BBX 8 15 0 -3
BITMAP
00
00
66
49
29
09
09
0F
09
09
09
09
00
00
00
ENDCHAR
STARTCHAR uni1F0A
ENCODING 7946
SWIDTH 512 0
DWIDTH 8 0
BBX 8 15 0 -3
BITMAP
00
00
66
29
49
49
29
0F
09
09
09
09
00
00
00
ENDCHAR
STARTCHAR uni1F0B
ENCODING 7947
SWIDTH 512 0
DWIDTH 8 0
BBX 8 15 0 -3
BITMAP
00
00
66
49
29
49
29
0F
09
09
09
09
00
00
00
ENDCHAR
STARTCHAR uni1F0C
ENCODING 7948
SWIDTH 512 0
DWIDTH 8 0
BBX 8 15 0 -3
BITMAP
00
00
66
29
49
29
49
0F
09
09
09
09
00
00
00
ENDCHAR
STARTCHAR uni1F0D
ENCODING 7949
SWIDTH 512 0
DWIDTH 8 0
BBX 8 15 0 -3
BITMAP
00
00
66
49
29
29
49
0F
09
09
09
09
00
00
00
ENDCHAR
STARTCHAR uni1F0E
ENCODING 7950
SWIDTH 512 0
DWIDTH 8 0
BBX 8 15 0 -3
BITMAP
00
00
66
09
69
29
49
0F
09
09
09
09
00
00
00
ENDCHAR
STARTCHAR uni1F0F
ENCODING 7951
SWIDTH 512 0
DWIDTH 8 0
BBX 8 15 0 -3
BITMAP
00
00
66
49
29
09
09
0F
09
09
09
09
00
00
00
ENDCHAR
STARTCHAR uni1F10
ENCODING 7952
SWIDTH 512 0
DWIDTH 8 0
BBX 8 15 0 -3
BITMAP
00
18
08
10
00
3C
42
40
38
40
42
3C
00
00
00
ENDCHAR
STARTCHAR uni1F11
ENCODING 7953
SWIDTH 512 0
DWIDTH 8 0
BBX 8 15 0 -3
BITMAP
00
18
10
08
00
3C
42
40
38
40
42
3C
00
00
00
ENDCHAR
STARTCHAR uni1F12
ENCODING 7954
SWIDTH 512 0
DWIDTH 8 0
BBX 8 15 0 -3
BITMAP
00
34
12
20
00
3C
42
40
38
40
42
3C
00
00
00
ENDCHAR
STARTCHAR uni1F13
ENCODING 7955
SWIDTH 512 0
DWIDTH 8 0
BBX 8 15 0 -3
BITMAP
00
34
22
10
00
3C
42
40
38
40
42
3C
00
00
00
ENDCHAR
STARTCHAR uni1F14
ENCODING 7956
SWIDTH 512 0
DWIDTH 8 0
BBX 8 15 0 -3
BITMAP
00
32
14
20
00
3C
42
40
38
40
42
3C
00
00
00
ENDCHAR
STARTCHAR uni1F15
ENCODING 7957
SWIDTH 512 0
DWIDTH 8 0
BBX 8 15 0 -3
BITMAP
00
32
24
10
00
3C
42
40
38
40
42
3C
00
00
00
ENDCHAR
STARTCHAR uni1F18
ENCODING 7960
SWIDTH 512 0
DWIDTH 8 0
BBX 8 15 0 -3
BITMAP
00
00
6F
28
48
08
0E
08
08
08
08
0F
00
00
00
ENDCHAR
STARTCHAR uni1F19
ENCODING 7961
SWIDTH 512 0
DWIDTH 8 0
BBX 8 15 0 -3
BITMAP
00
00
6F
48
28
08
0E
08
08
08
08
0F
00
00
00
ENDCHAR
STARTCHAR uni1F1A
ENCODING 7962
SWIDTH 512 0
DWIDTH 8 0
BBX 8 15 0 -3
BITMAP
00
00
6F
28
48
48
2E
08
08
08
08
0F
00
00
00
ENDCHAR
STARTCHAR uni1F1B
ENCODING 7963
SWIDTH 512 0
DWIDTH 8 0
BBX 8 15 0 -3
BITMAP
00
00
6F
48
28
48
2E
08
08
08
08
0F
00
00
00
ENDCHAR
STARTCHAR uni1F1C
ENCODING 7964
SWIDTH 512 0
DWIDTH 8 0
BBX 8 15 0 -3
BITMAP
00
00
6F
28
48
28
4E
08
08
08
08
0F
00
00
00
ENDCHAR
STARTCHAR uni1F1D
ENCODING 7965
SWIDTH 512 0
DWIDTH 8 0
BBX 8 15 0 -3
BITMAP
00
00
6F
48
28
28
4E
08
08
08
08
0F
00
00
00
ENDCHAR
STARTCHAR uni1F20
ENCODING 7968
SWIDTH 512 0
DWIDTH 8 0
BBX 8 15 0 -3
BITMAP
00
18
08
10
00
5C
62
42
42
42
42
42
02
02
00
ENDCHAR
STARTCHAR uni1F21
ENCODING 7969
SWIDTH 512 0
DWIDTH 8 0
BBX 8 15 0 -3
BITMAP
00
18
10
08
00
5C
62
42
42
42
42
42
02
02
00
ENDCHAR
STARTCHAR uni1F22
ENCODING 7970
SWIDTH 512 0
DWIDTH 8 0
BBX 8 15 0 -3
BITMAP
00
34
12
20
00
5C
62
42
42
42
42
42
02
02
00
ENDCHAR
STARTCHAR uni1F23
ENCODING 7971
SWIDTH 512 0
DWIDTH 8 0
BBX 8 15 0 -3
BITMAP
00
34
22
10
00
5C
62
42
42
42
42
42
02
02
00
ENDCHAR
STARTCHAR uni1F24
ENCODING 7972
SWIDTH 512 0
DWIDTH 8 0
BBX 8 15 0 -3
BITMAP
00
32
14
20
00
5C
62
42
42
42
42
42
02
02
00
ENDCHAR
STARTCHAR uni1F25
ENCODING 7973
SWIDTH 512 0
DWIDTH 8 0
BBX 8 15 0 -3
BITMAP
00
32
24
10
00
5C
62
42
42
42
42
42
02
02
00
ENDCHAR
STARTCHAR uni1F26
ENCODING 7974
SWIDTH 512 0
DWIDTH 8 0
BBX 8 15 0 -3
BITMAP
34
58
08
10
00
5C
62
42
42
42
42
42
02
02
00
ENDCHAR
STARTCHAR uni1F27
ENCODING 7975
SWIDTH 512 0
DWIDTH 8 0
BBX 8 15 0 -3
BITMAP
34
58
10
08
00
5C
62
42
42
42
42
42
02
02
00
ENDCHAR
STARTCHAR uni1F28
ENCODING 7976
SWIDTH 512 0
DWIDTH 8 0
BBX 8 15 0 -3
BITMAP
00
00
69
29
49
09
0F
09
09
09
09
09
00
00
00
ENDCHAR
STARTCHAR uni1F29
ENCODING 7977
SWIDTH 512 0
DWIDTH 8 0
BBX 8 15 0 -3
BITMAP
00
00
69
49
29
09
0F
09
09
09
09
09
00
00
00
ENDCHAR
STARTCHAR uni1F2A
ENCODING 7978
SWIDTH 512 0
DWIDTH 8 0
BBX 8 15 0 -3
BITMAP
00
00
69
29
49
49
2F
09
09
09
09
09
00
00
00
ENDCHAR
STARTCHAR uni1F2B
ENCODING 7979
SWIDTH 512 0
DWIDTH 8 0
BBX 8 15 0 -3
BITMAP
00
00
69
49
29
49
2F
09
09
09
09
09
00
00
00
ENDCHAR
STARTCHAR uni1F2C
ENCODING 7980
SWIDTH 512 0
DWIDTH 8 0
BBX 8 15 0 -3
BITMAP
00
00
69
29
49
29
4F
09
09
09
09
09
00
00
00
ENDCHAR
STARTCHAR uni1F2D
ENCODING 7981
SWIDTH 512 0
DWIDTH 8 0
BBX 8 15 0 -3
BITMAP
00
00
69
49
29
29
4F
09
09
09
09
09
00
00
00
ENDCHAR
STARTCHAR uni1F2E
ENCODING 7982
SWIDTH 512 0
DWIDTH 8 0
BBX 8 15 0 -3
BITMAP
00
00
69
09
69
29
4F
09
09
09
09
09
00
00
00
ENDCHAR
STARTCHAR uni1F2F
ENCODING 7983
SWIDTH 512 0
DWIDTH 8 0
BBX 8 15 0 -3
BITMAP
00
00
69
09
69
49
2F
09
09
09
09
09
00
00
00
ENDCHAR
STARTCHAR uni1F30
ENCODING 7984
SWIDTH 512 0
DWIDTH 8 0
BBX 8 15 0 -3
BITMAP
00
30
10
20
00
20
20
20
20
20
24
18
00
00
00
ENDCHAR
STARTCHAR uni1F31
ENCODING 7985
SWIDTH 512 0
DWIDTH 8 0
BBX 8 15 0 -3
BITMAP
00
30
20
10
00
20
20
20
20
20
24
18
00
00
00
ENDCHAR
STARTCHAR uni1F32
ENCODING 7986
SWIDTH 512 0
DWIDTH 8 0
BBX 8 15 0 -3
BITMAP
00
68
24
40
00
10
10
10
10
10
12
0C
00
00
00
ENDCHAR
STARTCHAR uni1F33
ENCODING 7987
SWIDTH 512 0
DWIDTH 8 0
BBX 8 15 0 -3
BITMAP
00
68
44
20
00
10
10
10
10
10
12
0C
00
00
00
ENDCHAR
STARTCHAR uni1F34
ENCODING 7988
SWIDTH 512 0
DWIDTH 8 0
BBX 8 15 0 -3
BITMAP
00
64
28
40
00
10
10
10
10
10
12
0C
00
00
00
ENDCHAR
STARTCHAR uni1F35
ENCODING 7989
SWIDTH 512 0
DWIDTH 8 0
BBX 8 15 0 -3
BITMAP
00
64
48
20
00
10
10
10
10
10
12
0C
00
00
00
ENDCHAR
STARTCHAR uni1F36
ENCODING 7990
SWIDTH 512 0
DWIDTH 8 0
BBX 8 15 0 -3
BITMAP
34
58
08
10
00
10
10
10
10
10
12
0C
00
00
00
ENDCHAR
STARTCHAR uni1F37
ENCODING 7991
SWIDTH 512 0
DWIDTH 8 0
BBX 8 15 0 -3
BITMAP
34
58
10
08
00
10
10
10
10
10
12
0C
00
00
00
ENDCHAR
STARTCHAR uni1F38
ENCODING 7992
SWIDTH 512 0
DWIDTH 8 0
BBX 8 15 0 -3
BITMAP
00
00
6E
24
44
04
04
04
04
04
04
0E
00
00
00
ENDCHAR
STARTCHAR uni1F39
ENCODING 7993
SWIDTH 512 0
DWIDTH 8 0
BBX 8 15 0 -3
BITMAP
00
00
6E
44
24
04
04
04
04
04
04
0E
00
00
00
ENDCHAR
STARTCHAR uni1F3A
ENCODING 7994
SWIDTH 512 0
DWIDTH 8 0
BBX 8 15 0 -3
BITMAP
00
00
6E
24
44
44
24
04
04
04
04
0E
00
00
00
ENDCHAR
STARTCHAR uni1F3B
ENCODING 7995
SWIDTH 512 0
DWIDTH 8 0
BBX 8 15 0 -3
BITMAP
00
00
6E
44
24
44
24
04
04
04
04
0E
00
00
00
ENDCHAR
STARTCHAR uni1F3C
ENCODING 7996
SWIDTH 512 0
DWIDTH 8 0
BBX 8 15 0 -3
BITMAP
00
00
6E
24
44
24
44
04
04
04
04
0E
00
00
00
ENDCHAR
STARTCHAR uni1F3D
ENCODING 7997
SWIDTH 512 0
DWIDTH 8 0
BBX 8 15 0 -3
BITMAP
00
00
6E
44
24
24
44
04
04
04
04
0E
00
00
00
ENDCHAR
STARTCHAR uni1F3E
ENCODING 7998
SWIDTH 512 0
DWIDTH 8 0
BBX 8 15 0 -3
BITMAP
00
00
6E
04
64
24
44
04
04
04
04
0E
00
00
00
ENDCHAR
STARTCHAR uni1F3F
ENCODING 7999
SWIDTH 512 0
DWIDTH 8 0
BBX 8 15 0 -3
BITMAP
00
00
6E
04
64
44
24
04
04
04
04
0E
00
00
00
ENDCHAR
STARTCHAR uni1F40
ENCODING 8000
SWIDTH 512 0
DWIDTH 8 0
BBX 8 15 0 -3
BITMAP
00
18
08
10
00
3C
42
42
42
42
42
3C
00
00
00
ENDCHAR
STARTCHAR uni1F41
ENCODING 8001
SWIDTH 512 0
DWIDTH 8 0
BBX 8 15 0 -3
BITMAP
00
18
10
08
00
3C
42
42
42
42
42
3C
00
00
00
ENDCHAR
STARTCHAR uni1F42
ENCODING 8002
SWIDTH 512 0
DWIDTH 8 0
BBX 8 15 0 -3
BITMAP
00
34
12
20
00
3C
42
42
42
42
42
3C
00
00
00
ENDCHAR
STARTCHAR uni1F43
ENCODING 8003
SWIDTH 512 0
DWIDTH 8 0
BBX 8 15 0 -3
BITMAP
00
34
22
10
00
3C
42
42
42
42
42
3C
00
00
00
ENDCHAR
STARTCHAR uni1F44
ENCODING 8004
SWIDTH 512 0
DWIDTH 8 0
BBX 8 15 0 -3
BITMAP
00
32
14
20
00
3C
42
42
42
42
42
3C
00
00
00
ENDCHAR
STARTCHAR uni1F45
ENCODING 8005
SWIDTH 512 0
DWIDTH 8 0
BBX 8 15 0 -3
BITMAP
00
32
24
10
00
3C
42
42
42
42
42
3C
00
00
00
ENDCHAR
STARTCHAR uni1F48
ENCODING 8008
SWIDTH 512 0
DWIDTH 8 0
BBX 8 15 0 -3
BITMAP
00
00
66
29
49
09
09
09
09
09
09
06
00
00
00
ENDCHAR
STARTCHAR uni1F49
ENCODING 8009
SWIDTH 512 0
DWIDTH 8 0
BBX 8 15 0 -3
BITMAP
00
00
66
49
29
09
09
09
09
09
09
06
00
00
00
ENDCHAR
STARTCHAR uni1F4A
ENCODING 8010
SWIDTH 512 0
DWIDTH 8 0
BBX 8 15 0 -3
BITMAP
00
00
66
29
49
49
29
09
09
09
09
06
00
00
00
ENDCHAR
STARTCHAR uni1F4B
ENCODING 8011
SWIDTH 512 0
DWIDTH 8 0
BBX 8 15 0 -3
BITMAP
00
00
66
49
29
49
29
09
09
09
09
06
00
00
00
ENDCHAR
STARTCHAR uni1F4C
ENCODING 8012
SWIDTH 512 0
DWIDTH 8 0
BBX 8 15 0 -3
BITMAP
00
00
66
29
49
29
49
09
09
09
09
06
00
00
00
ENDCHAR
STARTCHAR uni1F4D
ENCODING 8013
SWIDTH 512 0
DWIDTH 8 0
BBX 8 15 0 -3
BITMAP
00
00
66
49
29
29
49
09
09
09
09
06
00
00
00
ENDCHAR
STARTCHAR uni1F50
ENCODING 8016
SWIDTH 512 0
DWIDTH 8 0
BBX 8 15 0 -3
BITMAP
00
18
08
10
00
42
42
42
42
42
42
3C
00
00
00
ENDCHAR
STARTCHAR uni1F51
ENCODING 8017
SWIDTH 512 0
DWIDTH 8 0
BBX 8 15 0 -3
BITMAP
00
18
10
08
00
42
42
42
42
42
42
3C
00
00
00
ENDCHAR
STARTCHAR uni1F52
ENCODING 8018
SWIDTH 512 0
DWIDTH 8 0
BBX 8 15 0 -3
BITMAP
00
34
12
20
00
42
42
42
42
42
42
3C
00
00
00
ENDCHAR
STARTCHAR uni1F53
ENCODING 8019
SWIDTH 512 0
DWIDTH 8 0
BBX 8 15 0 -3
BITMAP
00
34
22
10
00
42
42
42
42
42
42
3C
00
00
00
ENDCHAR
STARTCHAR uni1F54
ENCODING 8020
SWIDTH 512 0
DWIDTH 8 0
BBX 8 15 0 -3
BITMAP
00
32
14
20
00
42
42
42
42
42
42
3C
00
00
00
ENDCHAR
STARTCHAR uni1F55
ENCODING 8021
SWIDTH 512 0
DWIDTH 8 0
BBX 8 15 0 -3
BITMAP
00
32
24
10
00
42
42
42
42
42
42
3C
00
00
00
ENDCHAR
STARTCHAR uni1F56
ENCODING 8022
SWIDTH 512 0
DWIDTH 8 0
BBX 8 15 0 -3
BITMAP
34
58
08
10
00
42
42
42
42
42
42
3C
00
00
00
ENDCHAR
STARTCHAR uni1F57
ENCODING 8023
SWIDTH 512 0
DWIDTH 8 0
BBX 8 15 0 -3
BITMAP
34
58
10
08
00
42
42
42
42
42
42
3C
00
00
00
ENDCHAR
STARTCHAR uni1F59
ENCODING 8025
SWIDTH 512 0
DWIDTH 8 0
BBX 8 15 0 -3
BITMAP
00
00
6A
4A
2A
0A
04
04
04
04
04
04
00
00
00
ENDCHAR
STARTCHAR uni1F5B
ENCODING 8027
SWIDTH 512 0
DWIDTH 8 0
BBX 8 15 0 -3
BITMAP
00
00
6A
4A
2A
4A
24
04
04
04
04
04
00
00
00
ENDCHAR
STARTCHAR uni1F5D
ENCODING 8029
SWIDTH 512 0
DWIDTH 8 0
BBX 8 15 0 -3
BITMAP
00
00
6A
4A
2A
2A
44
04
04
04
04
04
00
00
00
ENDCHAR
STARTCHAR uni1F5F
ENCODING 8031
SWIDTH 512 0
DWIDTH 8 0
BBX 8 15 0 -3
BITMAP
00
00
6A
0A
6A
4A
24
04
04
04
04
04
00
00
00
ENDCHAR
STARTCHAR uni1F60
ENCODING 8032
SWIDTH 512 0
DWIDTH 8 0
BBX 8 15 0 -3
BITMAP
00
0C
04
08
00
22
2A
2A
2A
2A
2A
14
00
00
00
ENDCHAR
STARTCHAR uni1F61
ENCODING 8033
SWIDTH 512 0
DWIDTH 8 0
BBX 8 15 0 -3
BITMAP
00
0C
08
04
00
22
2A
2A
2A
2A
2A
14
00
00
00
ENDCHAR
STARTCHAR uni1F62
ENCODING 8034
SWIDTH 512 0
DWIDTH 8 0
BBX 8 15 0 -3
BITMAP
00
34
12
20
00
22
2A
2A
2A
2A
2A
14
00
00
00
ENDCHAR
STARTCHAR uni1F63
ENCODING 8035
SWIDTH 512 0
DWIDTH 8 0
BBX 8 15 0 -3
BITMAP
00
34
22
10
00
22
2A
2A
2A
2A
2A
14
00
00
00
ENDCHAR
STARTCHAR uni1F64
ENCODING 8036
SWIDTH 512 0
DWIDTH 8 0
BBX 8 15 0 -3
BITMAP
00
32
14
20
00
22
2A
2A
2A
2A
2A
14
00
00
00
ENDCHAR
STARTCHAR uni1F65
ENCODING 8037
SWIDTH 512 0
DWIDTH 8 0
BBX 8 15 0 -3
BITMAP
00
32
24
10
00
22
2A
2A
2A
2A
2A
14
00
00
00
ENDCHAR
STARTCHAR uni1F66
ENCODING 8038
SWIDTH 512 0
DWIDTH 8 0
BBX 8 15 0 -3
BITMAP
1A
2C
04
08
00
22
2A
2A
2A
2A
2A
14
00
00
00
ENDCHAR
STARTCHAR uni1F67
ENCODING 8039
SWIDTH 512 0
DWIDTH 8 0
BBX 8 15 0 -3
BITMAP
1A
2C
08
04
00
22
2A
2A
2A
2A
2A
14
00
00
00
ENDCHAR
STARTCHAR uni1F68
ENCODING 8040
SWIDTH 512 0
DWIDTH 8 0
BBX 8 15 0 -3
BITMAP
00
00
66
29
49
09
09
09
09
06
06
09
00
00
00
ENDCHAR
STARTCHAR uni1F69
ENCODING 8041
SWIDTH 512 0
DWIDTH 8 0
BBX 8 15 0 -3
BITMAP
00
00
66
49
29
09
09
09
09
06
06
09
00
00
00
ENDCHAR
STARTCHAR uni1F6A
ENCODING 8042
SWIDTH 512 0
DWIDTH 8 0
BBX 8 15 0 -3
BITMAP
00
00
66
29
49
49
29
09
09
06
06
09
00
00
00
ENDCHAR
STARTCHAR uni1F6B
ENCODING 8043
SWIDTH 512 0
DWIDTH 8 0
BBX 8 15 0 -3
BITMAP
00
00
66
49
29
49
29
09
09
06
06
09
00
00
00
ENDCHAR
STARTCHAR uni1F6C
ENCODING 8044
SWIDTH 512 0
DWIDTH 8 0
BBX 8 15 0 -3
BITMAP
00
00
66
29
49
29
49
09
09
06
06
09
00
00
00
ENDCHAR
STARTCHAR uni1F6D
ENCODING 8045
SWIDTH 512 0
DWIDTH 8 0
BBX 8 15 0 -3
BITMAP
00
00
66
49
29
29
49
09
09
06
06
09
00
00
00
ENDCHAR
STARTCHAR uni1F6E
ENCODING 8046
SWIDTH 512 0
DWIDTH 8 0
BBX 8 15 0 -3
BITMAP
00
00
66
09
69
29
49
09
09
06
06
09
00
00
00
ENDCHAR
STARTCHAR uni1F6F
ENCODING 8047
SWIDTH 512 0
DWIDTH 8 0
BBX 8 15 0 -3
BITMAP
00
00
66
09
69
49
29
09
09
06
06
09
00
00
00
ENDCHAR
STARTCHAR uni1F70
ENCODING 8048
SWIDTH 512 0
DWIDTH 8 0
BBX 8 15 0 -3
BITMAP
00
00
10
08
00
3A
46
42
42
46
4A
32
00
00
00
ENDCHAR
STARTCHAR uni1F71
ENCODING 8049
SWIDTH 512 0
DWIDTH 8 0
BBX 8 15 0 -3
BITMAP
00
00
08
10
00
3A
46
42
42
46
4A
32
00
00
00
ENDCHAR
STARTCHAR uni1F72
ENCODING 8050
SWIDTH 512 0
DWIDTH 8 0
BBX 8 15 0 -3
BITMAP
00
00
10
08
00
3C
42
40
38
40
42
3C
00
00
00
ENDCHAR
STARTCHAR uni1F73
ENCODING 8051
SWIDTH 512 0
DWIDTH 8 0
BBX 8 15 0 -3
BITMAP
00
00
08
10
00
3C
42
40
38
40
42
3C
00
00
00
ENDCHAR
STARTCHAR uni1F74
ENCODING 8052
SWIDTH 512 0
DWIDTH 8 0
BBX 8 15 0 -3
BITMAP
00
00
10
08
00
5C
62
42
42
42
42
42
02
02
00
ENDCHAR
STARTCHAR uni1F75
ENCODING 8053
SWIDTH 512 0
DWIDTH 8 0
BBX 8 15 0 -3
BITMAP
00
00
08
10
00
5C
62
42
42
42
42
42
02
02
00
ENDCHAR
STARTCHAR uni1F76
ENCODING 8054
SWIDTH 512 0
DWIDTH 8 0
BBX 8 15 0 -3
BITMAP
00
00
20
10
00
10
10
10
10
10
12
0C
00
00
00
ENDCHAR
STARTCHAR uni1F77
ENCODING 8055
SWIDTH 512 0
DWIDTH 8 0
BBX 8 15 0 -3
BITMAP
00
00
10
20
00
20
20
20
20
20
24
18
00
00
00
ENDCHAR
STARTCHAR uni1F78
ENCODING 8056
SWIDTH 512 0
DWIDTH 8 0
BBX 8 15 0 -3
BITMAP
00
00
10
08
00
3C
42
42
42
42
42
3C
00
00
00
ENDCHAR
STARTCHAR uni1F79
ENCODING 8057
SWIDTH 512 0
DWIDTH 8 0
BBX 8 15 0 -3
BITMAP
00
00
08
10
00
3C
42
42
42
42
42
3C
00
00
00
ENDCHAR
STARTCHAR uni1F7A
ENCODING 8058
SWIDTH 512 0
DWIDTH 8 0
BBX 8 15 0 -3
BITMAP
00
00
10
08
00
42
42
42
42
42
42
3C
00
00
00
ENDCHAR
STARTCHAR uni1F7B
ENCODING 8059
SWIDTH 512 0
DWIDTH 8 0
BBX 8 15 0 -3
BITMAP
00
00
08
10
00
42
42
42
42
42
42
3C
00
00
00
ENDCHAR
STARTCHAR uni1F7C
ENCODING 8060
SWIDTH 512 0
DWIDTH 8 0
BBX 8 15 0 -3
BITMAP
00
00
10
08
00
22
2A
2A
2A
2A
2A
14
00
00
00
ENDCHAR
STARTCHAR uni1F7D
ENCODING 8061
SWIDTH 512 0
DWIDTH 8 0
BBX 8 15 0 -3
BITMAP
00
00
04
08
00
22
2A
2A
2A
2A
2A
14
00
00
00
ENDCHAR
STARTCHAR uni1F80
ENCODING 8064
SWIDTH 512 0
DWIDTH 8 0
BBX 8 15 0 -3
BITMAP
00
18
08
10
00
3A
46
42
42
46
4A
32
00
10
00
ENDCHAR
STARTCHAR uni1F81
ENCODING 8065
SWIDTH 512 0
DWIDTH 8 0
BBX 8 15 0 -3
BITMAP
00
18
10
08
00
3A
46
42
42
46
4A
32
00
10
00
ENDCHAR
STARTCHAR uni1F82
ENCODING 8066
SWIDTH 512 0
DWIDTH 8 0
BBX 8 15 0 -3
BITMAP
00
34
12
20
00
3A
46
42
42
46
4A
32
00
10
00
ENDCHAR
STARTCHAR uni1F83
ENCODING 8067
SWIDTH 512 0
DWIDTH 8 0
BBX 8 15 0 -3
BITMAP
00
34
22
10
00
3A
46
42
42
46
4A
32
00
10
00
ENDCHAR
STARTCHAR uni1F84
ENCODING 8068
SWIDTH 512 0
DWIDTH 8 0
BBX 8 15 0 -3
BITMAP
00
32
14
20
00
3A
46
42
42
46
4A
32
00
10
00
ENDCHAR
STARTCHAR uni1F85
ENCODING 8069
SWIDTH 512 0
DWIDTH 8 0
BBX 8 15 0 -3
BITMAP
00
32
24
10
00
3A
46
42
42
46
4A
32
00
10
00
ENDCHAR
STARTCHAR uni1F86
ENCODING 8070
SWIDTH 512 0
DWIDTH 8 0
BBX 8 15 0 -3
BITMAP
34
58
08
10
00
3A
46
42
42
46
4A
32
00
10
00
ENDCHAR
STARTCHAR uni1F87
ENCODING 8071
SWIDTH 512 0
DWIDTH 8 0
BBX 8 15 0 -3
BITMAP
34
58
10
08
00
3A
46
42
42
46
4A
32
00
10
00
ENDCHAR
STARTCHAR uni1F88
ENCODING 8072
SWIDTH 512 0
DWIDTH 8 0
BBX 8 15 0 -3
BITMAP
00
00
66
29
49
09
09
0F
09
09
09
09
00
04
00
ENDCHAR
STARTCHAR uni1F89
ENCODING 8073
SWIDTH 512 0
DWIDTH 8 0
BBX 8 15 0 -3
BITMAP
00
00
66
49
29
09
09
0F
09
09
09
09
00
04
00
ENDCHAR
STARTCHAR uni1F8A
ENCODING 8074
SWIDTH 512 0
DWIDTH 8 0
BBX 8 15 0 -3
BITMAP
00
00
66
29
49
49
29
0F
09
09
09
09
00
04
00
ENDCHAR
STARTCHAR uni1F8B
ENCODING 8075
SWIDTH 512 0
DWIDTH 8 0
BBX 8 15 0 -3
BITMAP
00
00
66
49
29
49
29
0F
09
09
09
09
00
04
00
ENDCHAR
STARTCHAR uni1F8C
ENCODING 8076
SWIDTH 512 0
DWIDTH 8 0
BBX 8 15 0 -3
BITMAP
00
00
66
29
49
29
49
0F
09
09
09
09
00
04
00
ENDCHAR
STARTCHAR uni1F8D
ENCODING 8077
SWIDTH 512 0
DWIDTH 8 0
BBX 8 15 0 -3
BITMAP
00
00
66
49
29
29
49
0F
09
09
09
09
00
04
00
ENDCHAR
STARTCHAR uni1F8E
ENCODING 8078
SWIDTH 512 0
DWIDTH 8 0
BBX 8 15 0 -3
BITMAP
00
00
66
09
69
29
49
0F
09
09
09
09
00
04
00
ENDCHAR
STARTCHAR uni1F8F
ENCODING 8079
SWIDTH 512 0
DWIDTH 8 0
BBX 8 15 0 -3
BITMAP
00
00
66
09
69
49
29
0F
09
09
09
09
00
04
00
ENDCHAR
STARTCHAR uni1F90
ENCODING 8080
SWIDTH 512 0
DWIDTH 8 0
BBX 8 15 0 -3
BITMAP
00
18
08
10
00
5C
62
42
42
42
42
42
02
42
00
ENDCHAR
STARTCHAR uni1F91
ENCODING 8081
SWIDTH 512 0
DWIDTH 8 0
BBX 8 15 0 -3
BITMAP
00
18
10
08
00
5C
62
42
42
42
42
42
02
42
00
ENDCHAR
STARTCHAR uni1F92
ENCODING 8082
SWIDTH 512 0
DWIDTH 8 0
BBX 8 15 0 -3
BITMAP
00
34
12
20
00
5C
62
42
42
42
42
42
02
42
00
ENDCHAR
STARTCHAR uni1F93
ENCODING 8083
SWIDTH 512 0
DWIDTH 8 0
BBX 8 15 0 -3
BITMAP
00
34
22
10
00
5C
62
42
42
42
42
42
02
42
00
ENDCHAR
STARTCHAR uni1F94
ENCODING 8084
SWIDTH 512 0
DWIDTH 8 0
BBX 8 15 0 -3
BITMAP
00
32
14
20
00
5C
62
42
42
42
42
42
02
42
00
ENDCHAR
STARTCHAR uni1F95
ENCODING 8085
SWIDTH 512 0
DWIDTH 8 0
BBX 8 15 0 -3
BITMAP
00
32
24
10
00
5C
62
42
42
42
42
42
02
42
00
ENDCHAR
STARTCHAR uni1F96
ENCODING 8086
SWIDTH 512 0
DWIDTH 8 0
BBX 8 15 0 -3
BITMAP
34
58
08
10
00
5C
62
42
42
42
42
42
02
42
00
ENDCHAR
STARTCHAR uni1F97
ENCODING 8087
SWIDTH 512 0
DWIDTH 8 0
BBX 8 15 0 -3
BITMAP
34
58
10
08
00
5C
62
42
42
42
42
42
02
42
00
ENDCHAR
STARTCHAR uni1F98
ENCODING 8088
SWIDTH 512 0
DWIDTH 8 0
BBX 8 15 0 -3
BITMAP
00
00
69
29
49
09
0F
09
09
09
09
09
00
04
00
ENDCHAR
STARTCHAR uni1F99
ENCODING 8089
SWIDTH 512 0
DWIDTH 8 0
BBX 8 15 0 -3
BITMAP
00
00
69
49
29
09
0F
09
09
09
09
09
00
04
00
ENDCHAR
STARTCHAR uni1F9A
ENCODING 8090
SWIDTH 512 0
DWIDTH 8 0
BBX 8 15 0 -3
BITMAP
00
00
69
29
49
49
2F
09
09
09
09
09
00
04
00
ENDCHAR
STARTCHAR uni1F9B
ENCODING 8091
SWIDTH 512 0
DWIDTH 8 0
BBX 8 15 0 -3
BITMAP
00
00
69
49
29
49
2F
09
09
09
09
09
00
04
00
ENDCHAR
STARTCHAR uni1F9C
ENCODING 8092
SWIDTH 512 0
DWIDTH 8 0
BBX 8 15 0 -3
BITMAP
00
00
69
29
49
29
4F
09
09
09
09
09
00
04
00
ENDCHAR
STARTCHAR uni1F9D
ENCODING 8093
SWIDTH 512 0
DWIDTH 8 0
BBX 8 15 0 -3
BITMAP
00
00
69
49
29
29
4F
09
09
09
09
09
00
04
00
ENDCHAR
STARTCHAR uni1F9E
ENCODING 8094
SWIDTH 512 0
DWIDTH 8 0
BBX 8 15 0 -3
BITMAP
00
00
69
09
69
29
4F
09
09
09
09
09
00
04
00
ENDCHAR
STARTCHAR uni1F9F
ENCODING 8095
SWIDTH 512 0
DWIDTH 8 0
BBX 8 15 0 -3
BITMAP
00
00
69
09
69
49
2F
09
09
09
09
09
00
04
00
ENDCHAR
STARTCHAR uni1FA0
ENCODING 8096
SWIDTH 512 0
DWIDTH 8 0
BBX 8 15 0 -3
BITMAP
00
0C
04
08
00
22
2A
2A
2A
2A
2A
14
00
08
00
ENDCHAR
STARTCHAR uni1FA1
ENCODING 8097
SWIDTH 512 0
DWIDTH 8 0
BBX 8 15 0 -3
BITMAP
00
0C
08
04
00
22
2A
2A
2A
2A
2A
14
00
08
00
ENDCHAR
STARTCHAR uni1FA2
ENCODING 8098
SWIDTH 512 0
DWIDTH 8 0
BBX 8 15 0 -3
BITMAP
00
34
12
20
00
22
2A
2A
2A
2A
2A
14
00
08
00
ENDCHAR
STARTCHAR uni1FA3
ENCODING 8099
SWIDTH 512 0
DWIDTH 8 0
BBX 8 15 0 -3
BITMAP
00
34
22
10
00
22
2A
2A
2A
2A
2A
14
00
08
00
ENDCHAR
STARTCHAR uni1FA4
ENCODING 8100
SWIDTH 512 0
DWIDTH 8 0
BBX 8 15 0 -3
BITMAP
00
32
14
20
00
22
2A
2A
2A
2A
2A
14
00
08
00
ENDCHAR
STARTCHAR uni1FA5
ENCODING 8101
SWIDTH 512 0
DWIDTH 8 0
BBX 8 15 0 -3
BITMAP
00
32
24
10
00
22
2A
2A
2A
2A
2A
14
00
08
00
ENDCHAR
STARTCHAR uni1FA6
ENCODING 8102
SWIDTH 512 0
DWIDTH 8 0
BBX 8 15 0 -3
BITMAP
1A
2C
04
08
00
22
2A
2A
2A
2A
2A
14
00
08
00
ENDCHAR
STARTCHAR uni1FA7
ENCODING 8103
SWIDTH 512 0
DWIDTH 8 0
BBX 8 15 0 -3
BITMAP
1A
2C
08
04
00
22
2A
2A
2A
2A
2A
14
00
08
00
ENDCHAR
STARTCHAR uni1FA8
ENCODING 8104
SWIDTH 512 0
DWIDTH 8 0
BBX 8 15 0 -3
BITMAP
00
00
66
29
49
09
09
09
09
06
06
09
00
04
00
ENDCHAR
STARTCHAR uni1FA9
ENCODING 8105
SWIDTH 512 0
DWIDTH 8 0
BBX 8 15 0 -3
BITMAP
00
00
66
49
29
09
09
09
09
06
06
09
00
04
00
ENDCHAR
STARTCHAR uni1FAA
ENCODING 8106
SWIDTH 512 0
DWIDTH 8 0
BBX 8 15 0 -3
BITMAP
00
00
66
29
49
49
29
09
09
06
06
09
00
04
00
ENDCHAR
STARTCHAR uni1FAB
ENCODING 8107
SWIDTH 512 0
DWIDTH 8 0
BBX 8 15 0 -3
BITMAP
00
00
66
49
29
49
29
09
09
06
06
09
00
04
00
ENDCHAR
STARTCHAR uni1FAC
ENCODING 8108
SWIDTH 512 0
DWIDTH 8 0
BBX 8 15 0 -3
BITMAP
00
00
66
29
49
29
49
09
09
06
06
09
00
04
00
ENDCHAR
STARTCHAR uni1FAD
ENCODING 8109
SWIDTH 512 0
DWIDTH 8 0
BBX 8 15 0 -3
BITMAP
00
00
66
49
29
29
49
09
09
06
06
09
00
04
00
ENDCHAR
STARTCHAR uni1FAE
ENCODING 8110
SWIDTH 512 0
DWIDTH 8 0
BBX 8 15 0 -3
BITMAP
00
00
66
09
69
29
49
09
09
06
06
09
00
04
00
ENDCHAR
STARTCHAR uni1FAF
ENCODING 8111
SWIDTH 512 0
DWIDTH 8 0
BBX 8 15 0 -3
BITMAP
00
00
66
09
69
49
29
09
09
06
06
09
00
04
00
ENDCHAR
STARTCHAR uni1FB0
ENCODING 8112
SWIDTH 512 0
DWIDTH 8 0
BBX 8 15 0 -3
BITMAP
00
00
42
3C
00
3A
46
42
42
46
4A
32
00
00
00
ENDCHAR
STARTCHAR uni1FB1
ENCODING 8113
SWIDTH 512 0
DWIDTH 8 0
BBX 8 15 0 -3
BITMAP
00
00
00
7E
00
3A
46
42
42
46
4A
32
00
00
00
ENDCHAR
STARTCHAR uni1FB2
ENCODING 8114
SWIDTH 512 0
DWIDTH 8 0
BBX 8 15 0 -3
BITMAP
00
00
10
08
00
3A
46
42
42
46
4A
32
00
10
00
ENDCHAR
STARTCHAR uni1FB3
ENCODING 8115
SWIDTH 512 0
DWIDTH 8 0
BBX 8 15 0 -3
BITMAP
00
00
00
00
00
3A
46
42
42
46
4A
32
00
10
00
ENDCHAR
STARTCHAR uni1FB4
ENCODING 8116
SWIDTH 512 0
DWIDTH 8 0
BBX 8 15 0 -3
BITMAP
00
00
08
10
00
3A
46
42
42
46
4A
32
00
10
00
ENDCHAR
STARTCHAR uni1FB6
ENCODING 8118
SWIDTH 512 0
DWIDTH 8 0
BBX 8 15 0 -3
BITMAP
00
00
1A
2C
00
3A
46
42
42
46
4A
32
00
00
00
ENDCHAR
STARTCHAR uni1FB7
ENCODING 8119
SWIDTH 512 0
DWIDTH 8 0
BBX 8 15 0 -3
BITMAP
00
00
1A
2C
00
3A
46
42
42
46
4A
32
00
10
00
ENDCHAR
STARTCHAR uni1FB8
ENCODING 8120
SWIDTH 512 0
DWIDTH 8 0
BBX 8 15 0 -3
BITMAP
42
3C
00
18
24
42
42
7E
42
42
42
42
00
00
00
ENDCHAR
STARTCHAR uni1FB9
ENCODING 8121
SWIDTH 512 0
DWIDTH 8 0
BBX 8 15 0 -3
BITMAP
00
7E
00
18
24
42
42
7E
42
42
42
42
00
00
00
ENDCHAR
STARTCHAR uni1FBA
ENCODING 8122
SWIDTH 512 0
DWIDTH 8 0
BBX 8 15 0 -3
BITMAP
00
00
46
29
19
09
09
0F
09
09
09
09
00
00
00
ENDCHAR
STARTCHAR uni1FBB
ENCODING 8123
SWIDTH 512 0
DWIDTH 8 0
BBX 8 15 0 -3
BITMAP
00
00
16
29
49
09
09
0F
09
09
09
09
00
00
00
ENDCHAR
STARTCHAR uni1FBC
ENCODING 8124
SWIDTH 512 0
DWIDTH 8 0
BBX 8 15 0 -3
BITMAP
00
00
18
24
42
42
42
7E
42
42
42
42
10
18
00
ENDCHAR
STARTCHAR uni1FBD
ENCODING 8125
SWIDTH 512 0
DWIDTH 8 0
BBX 8 15 0 -3
BITMAP
00
18
08
10
00
00
00
00
00
00
00
00
00
00
00
ENDCHAR
STARTCHAR uni1FBE
ENCODING 8126
SWIDTH 512 0
DWIDTH 8 0
BBX 8 15 0 -3
BITMAP
00
00
00
00
00
00
00
00
10
10
10
08
00
00
00
ENDCHAR
STARTCHAR uni1FBF
ENCODING 8127
SWIDTH 512 0
DWIDTH 8 0
BBX 8 15 0 -3
BITMAP
00
18
08
10
00
00
00
00
00
00
00
00
00
00
00
ENDCHAR
STARTCHAR uni1FC0
ENCODING 8128
SWIDTH 512 0
DWIDTH 8 0
BBX 8 15 0 -3
BITMAP
00
1A
2C
00
00
00
00
00
00
00
00
00
00
00
00
ENDCHAR
STARTCHAR uni1FC1
ENCODING 8129
SWIDTH 512 0
DWIDTH 8 0
BBX 8 15 0 -3
BITMAP
00
1A
2C
00
22
00
00
00
00
00
00
00
00
00
00
ENDCHAR
STARTCHAR uni1FC2
ENCODING 8130
SWIDTH 512 0
DWIDTH 8 0
BBX 8 15 0 -3
BITMAP
00
00
10
08
00
5C
62
42
42
42
42
42
02
42
00
ENDCHAR
STARTCHAR uni1FC3
ENCODING 8131
SWIDTH 512 0
DWIDTH 8 0
BBX 8 15 0 -3
BITMAP
00
00
00
00
00
5C
62
42
42
42
42
42
02
42
00
ENDCHAR
STARTCHAR uni1FC4
ENCODING 8132
SWIDTH 512 0
DWIDTH 8 0
BBX 8 15 0 -3
BITMAP
00
00
08
10
00
5C
62
42
42
42
42
42
02
42
00
ENDCHAR
STARTCHAR uni1FC6
ENCODING 8134
SWIDTH 512 0
DWIDTH 8 0
BBX 8 15 0 -3
BITMAP
00
00
1A
2C
00
5C
62
42
42
42
42
42
02
02
00
ENDCHAR
ENDFONT
